Ссылка на приватное зеркало всего за 1$. Внимание количество ограничено!!!

OK

1+1

iTunes

мы

OK

1

WEB-DLRip

Джокер

Пифагор

Ведьмак / The Witcher сериал

Лицензия

ПШазам

ОК

Оно 2

iTunes

30
pack

Вам бонус

ВАЖНО

!!Акция!!

Alien_RageХит недели

RePack

Resident Evil 21

ИГРА 18+

pack

RePack

jed

!!Акция!!

Alien_Rage

RePack

fifa19

RePack

Assassins Creed: Odyssey

RePack

NEED FOR SPEED™ PAYBACK

4 сезон

9 сезон

Бесстыжие 9 сезон

Все сериалы

все сериалы на PB.wtf

RePack

FAR CRY 5
  

Убить няню / Kill the Babysitter (Джейк Хелгрен) [2018 г., Триллер, HDTVRip, Любительский (многоголосый) (Синема УС)] pb.wtf

Убить няню через торрент pb.wtf

Размер: 1.31 GB | Добавлен: 1 год 3 мес. назад | Торрент скачан:67 раз
Скачать  

29-09-2018 09:11 Убить няню Скачать торрент  

Убить няню / Kill the Babysitter
Год выпуска: 2018
Страна: США / Ninth House, The
Жанр: Триллер
Продолжительность: 01:24:33
Перевод: Любительский (многоголосый)(Синема УС)
Субтитры: Отсутствуют

Режиссер: Джейк Хелгрен

rating

В ролях: Бриттани Андервуд, Джет Юргенсмейер, Шаника Ноулз, Эрианн Цукер, Рейган Пастернак, Кейтлин Тервер, Марк Гроссман, Шон Уэйлен, Мэттью Хиш, Нэнси Ла Скала

Описание: Когда детскую сиделку Дафни Харт увольняют из больницы из-за несчастного случая, ей приходится согласиться на работу няней в доме богатого доктора в пригороде и приглядывать за её сыном, страдающим диабетом. Вскоре в пригороде убивают другую няню, и Дафни начинает подозревать, что с этим местом что-то не так.

Доп. информация: Присутствуют вставки голосовой и текстовой рекламы

Качество: HDTVRip
Формат: AVI
Видео кодек: XviD
Аудио кодек: AC3
Видео: Xvid, 720x400, ~1842 Kbps
Аудио#1: AC-3, 2 ch, 384 Kbps
скриншот   скриншот   скриншот   скриншот  

Общее
Полное имя : D:\CD\Убить няню (Триллер) (2018) HDTVRip-MVO\Убить няню (Триллер) (2018) HDTVRip-MVO.avi
Формат : AVI
Формат/Информация : Audio Video Interleave
Размер файла : 1,31 Гбайт
Продолжительность : 1 ч. 24 м.
Общий поток : 2236 Кбит/сек
Программа кодирования : VirtualDubMod 1.5.10.2 (build 2540/release)
Библиотека кодирования : VirtualDub build 35576/release

Видео
Идентификатор : 0
Формат : MPEG-4 Visual
Профиль формата : Advanced Simple@L5
Настройки формата : BVOP2 / Custom Matrix
Параметр BVOP формата : 2
Параметр QPel формата : Нет
Параметр GMC формата : Без точки перехода
Параметр матрицы формата : Выборочная
Идентификатор кодека : XVID
Идентификатор кодека/Подсказка : XviD
Продолжительность : 1 ч. 24 м.
Битрейт : 1842 Кбит/сек
Ширина : 720 пикселей
Высота : 400 пикселей
Соотношение сторон : 16:9
Частота кадров : 23,976 (24000/1001) кадра/сек
Цветовое пространство : YUV
Субдискретизация насыщенности : 4:2:0
Битовая глубина : 8 бит
Тип развёртки : Прогрессивная
Метод сжатия : С потерями
Бит/(Пиксели*Кадры) : 0.267
Размер потока : 1,08 Гбайт (82%)
Библиотека кодирования : XviD 1.2.1 (UTC 2008-12-04)

Аудио
Идентификатор : 1
Формат : AC-3
Формат/Информация : Audio Coding 3
Коммерческое название : Dolby Digital
Идентификатор кодека : 2000
Продолжительность : 1 ч. 24 м.
Вид битрейта : Постоянный
Битрейт : 384 Кбит/сек
Каналы : 2 канала
Channel layout : L R
Частота : 48,0 КГц
Частота кадров : 31,250 кадров/сек (1536 SPF)
Битовая глубина : 16 бит
Метод сжатия : С потерями
Размер потока : 231 Мбайт (17%)
Выравнивание : Разделение по промежуткам
Продолжительность промежутка : 42 мс. (1,00 видеокадр)
Время предзагрузки промежутка : 500 мс.
ServiceKind/String : Complete Main

pb.wtf



Скачать Убить няню через торрент http://pic1.kartinco.top/images/11/v6eha.jpg Скачать фильм Убить няню через торрент бесплантно в хорошем качестве Описание: Когда детскую сиделку Дафни Харт увольняют из больницы из-за несчастного случая, ей приходится согласиться на работу няней в доме ... 10 10 1
Торрент: Зарегистрирован [2018-09-29 09:11] · скачан: 67 раз
Статус: T временная
Размер: 1.31 GB
Как cкачать? Как скачать Убить няню через торрент | qTorrent

28-11-2019 20:33  

Отключить всю рекламу на сайте

    Дорогой пользователь! Огромная просьба, поблагодарите релизера, оцените раздачу и оставьте свои комментарий, если Вы скачали Убить няню через торрент бесплатно! Внесите свою лепту в развитие PiratBit!
    Комментировать посты могут только пользователи прошедшие не сложную регистрацию
    Показать сообщения:    

    Убить няню через торрент
    Скачать бесплатно Убить няню
    Убить няню скачать торрент
    Убить няню смотреть онлайн
    Cкачать фильм Убить няню бесплатно
    Убить няню скачать торрент в хорошем качестве
    Убить няню смотреть онлайн бесплатно в хорошем качестве


    Вы не можете начинать темы
    Вы не можете отвечать на сообщения
    Вы не можете редактировать свои сообщения
    Вы не можете удалять свои сообщения
    Вы не можете голосовать в опросах
    Вы не можете прикреплять файлы к сообщениям
    Вы можете скачивать файлы