Ссылка на приватное зеркало нашего сайта всего за 1$. Внимание количество ограничено!!!

2 сезон

iTunes

1 сезон

1

2 сезон

2 сезон

iTunes

1 сезон

RePack

30

Новинка

ВАЖНО

ИГРА 18+

pack

RePack

MK11
pack

Забери бонус

RePack

jed

!!Акция!!

Alien_Rage

RePack

fifa19

RePack

Assassins Creed: Odyssey

RePack

NEED FOR SPEED™ PAYBACK

4 сезон

9 сезон

Бесстыжие 9 сезон

Все сериалы

все сериалы на PB.wtf

RePack

FAR CRY 5
  

Пациенты / Лечение / In Treatment / Сезон: 3 / Серии: 1-28 из 28 (Пэрис Барклай, Родриго Гарсия, Джим МакКэй) [2010, Драма, медицина, WEBRip 1080p] MVO [NovaMedia] pb.wtf

Пациенты через торрент pb.wtf

Размер: 65.87 GB | Добавлен: 2 года 1 мес. назад | Торрент скачан:3 раза
Скачать  

29-09-2018 09:49 Пациенты Скачать торрент  

Пациенты / Лечение / In Treatment
Год выпуска: 2010
Страна: США
Жанр: Драма, медицина
Продолжительность: ~ 00:30:00
Перевод: Профессиональный (многоголосый) | NovaMedia
Субтитры: русские, английские

Режиссер: Пэрис Барклай, Родриго Гарсия, Джим МакКэй

rating

В ролях:

Гэбриел Бирн, Дайэнн Уист, Мишель Форбс, Блэр Андервуд, Миа Васиковска, Джош Чарльз, Эмбет Дэвидц, Эми Райан, Мелисса Джордж, Джон Махони

Описание:

Психотерапевт Пол Уэстон предан своему делу. Ежедневно он прикладывает колоссальные усилия, чтобы помочь пациентам. Однако сам Пол — точно такой же человек, которому постоянно приходится разбираться с собственными проблемами и переживаниями.

Герой решает круто изменить свою судьбу. Он хочет исправить все неправильное, что он сделал со времен своих причуд в начальной школе, когда изощренно измывался над одноклассниками и тащил все, что попадалось под руку. С этой целью он составляет подробный список своих разнокалиберных проказ и преисполняется решимости разыскать всех, кому он когда-либо сделал недоброе и компенсировать зло, чего бы это ни ему, ни когда-то от него потерпевшим ни стоило.

Качество: WEBRip 1080p | AMAZON
Формат: MKV

Видео: MPEG-4 AVC, 1920x1080 [16:9], 23.976 fps, ~ 13300 Kbps
Аудио#1: [Русский] AC3, 48 kHz, 2 ch, 192 Kbps
Аудио#2: [Английский] EAC3, 48 kHz, 6 ch, 640 Kbps
скриншот  скриншот  скриншот  скриншот  

бщее
Уникальный идентификатор : 238466543417607094244070677201974617958 (0xB366FC54E2AB67E4AF7A12061E7A6766)
Полное имя : I:In.Treatment.S03.1080p.AMZN.WEBRip.Rus.Eng_FILMSCLUBIn.Treatment.S03E01.1080p.AMZN.WEBRip.Rus.Eng_FILMSCLUB.mkv
Формат : Matroska
Версия формата : Version 4 / Version 2
Размер файла : 2,94 Гбайт
Продолжительность : 29 м.
Режим общего битрейта : Переменный
Общий поток : 14,4 Мбит/сек
Название фильма : In Treatment S01E01 - ReJliz FILMS CLUB by BenderBEST
Дата кодирования : UTC 2017-10-20 13:42:34
Программа кодирования : mkvmerge v6.9.1 ('Blue Panther') 32bit built on Apr 18 2014 18:15:44
Библиотека кодирования : libebml v1.3.0 + libmatroska v1.4.1
Обложка : Yes
Attachments : Cover

Видео
Идентификатор : 1
Формат : AVC
Формат/Информация : Advanced Video Codec
Профиль формата : High@L4
Параметр CABAC формата : Да
Параметр ReFrames формата : 4 кадра
Идентификатор кодека : V_MPEG4/ISO/AVC
Продолжительность : 29 м.
Вид битрейта : Переменный
Битрейт : 13,3 Мбит/сек
Максимальный битрейт : 15,0 Мбит/сек
Ширина : 1920 пикселей
Высота : 1080 пикселей
Соотношение сторон : 16:9
Режим частоты кадров : Постоянный
Частота кадров : 23,976 (24000/1001) кадра/сек
Цветовое пространство : YUV
Субдискретизация насыщенности : 4:2:0
Битовая глубина : 8 бит
Тип развёртки : Прогрессивная
Бит/(Пиксели*Кадры) : 0.268
Размер потока : 2,71 Гбайт (92%)
Библиотека кодирования : x264 core 148 r2623 d5b2374
Настройки программы : cabac=1 / ref=4 / deblock=1:-1:-1 / analyse=0x3:0x133 / me=umh / subme=9 / psy=1 / psy_rd=1.00:0.15 / mixed_ref=1 / me_range=24 / chroma_me=1 / trellis=2 / 8x8dct=1 / cqm=0 / deadzone=21,11 / fast_pskip=1 / chroma_qp_offset=-3 / threads=34 / lookahead_threads=5 / sliced_threads=0 / nr=150 / decimate=1 / interlaced=0 / bluray_compat=0 / constrained_intra=0 / bframes=8 / b_pyramid=2 / b_adapt=2 / b_bias=0 / direct=3 / weightb=1 / open_gop=0 / weightp=2 / keyint=120 / keyint_min=61 / scenecut=0 / intra_refresh=0 / rc_lookahead=120 / rc=crf / mbtree=1 / crf=18.0 / qcomp=0.60 / qpmin=0 / qpmax=69 / qpstep=4 / vbv_maxrate=15000 / vbv_bufsize=31250 / crf_max=0.0 / nal_hrd=vbr / filler=0 / ip_ratio=1.40 / aq=3:1.00
Язык : English
Default : Да
Forced : Да
Цветовой диапазон : Limited
Основные цвета : BT.709
Характеристики трансфера : BT.709
Коэффициенты матрицы : BT.709

Аудио #1
Идентификатор : 2
Формат : AC-3
Формат/Информация : Audio Coding 3
Расширение режима : CM (complete main)
Параметр Endianness формата : Big
Идентификатор кодека : A_AC3
Продолжительность : 29 м.
Вид битрейта : Постоянный
Битрейт : 192 Кбит/сек
Каналы : 2 канала
Расположение каналов : Front: L R
Частота : 48,0 КГц
Частота кадров : 31,250 кадров/сек (1536 spf)
Метод сжатия : С потерями
Размер потока : 40,1 Мбайт (1%)
Заголовок : AC3 2.0 @ 192 kbps - MVO, Амедия / Novamedia
Язык : Russian
Default : Да
Forced : Да

Аудио #2
Идентификатор : 3
Формат : E-AC-3
Формат/Информация : Audio Coding 3
Параметр Endianness формата : Big
Идентификатор кодека : A_EAC3
Продолжительность : 29 м.
Вид битрейта : Постоянный
Битрейт : 640 Кбит/сек
Каналы : 6 каналов
Расположение каналов : Front: L C R, Side: L R, LFE
Частота : 48,0 КГц
Частота кадров : 187,500 кадров/сек (256 spf)
Метод сжатия : С потерями
Размер потока : 134 Мбайт (4%)
Заголовок : EAC3 5.1 @ 640 kbps
Язык : English
Default : Нет
Forced : Нет

Текст #1
Идентификатор : 4
Формат : UTF-8
Идентификатор кодека : S_TEXT/UTF8
Идентификатор кодека/Информация : UTF-8 Plain Text
Заголовок : Amedia
Язык : Russian
Default : Нет
Forced : Нет

Текст #2
Идентификатор : 5
Формат : UTF-8
Идентификатор кодека : S_TEXT/UTF8
Идентификатор кодека/Информация : UTF-8 Plain Text
Заголовок : SDH
Язык : English
Default : Нет
Forced : Нет

pb.wtf



Скачать Пациенты через торрент http://img11.lostpic.net/2018/09/29/883771ef6ca76e38911f1bf5b2603a6f.png Скачать фильм Пациенты через торрент бесплантно в хорошем качестве Описание: Психотерапевт Пол Уэстон предан своему делу. Ежедневно он прикладывает колоссальные усилия, чтобы помочь пациентам. Однако сам ... 10 10 2
Info! Золотая раздача, скачанное не засчитывается.
Торрент: Зарегистрирован [2018-09-29 09:49] · скачан: 3 раз
Статус: √ проверено
Размер: 65.87 GB
Как cкачать? Как скачать Пациенты через торрент | qTorrent

28-11-2019 20:33  

Отключить всю рекламу на сайте

    Дорогой пользователь! Огромная просьба, поблагодарите релизера, оцените раздачу и оставьте свои комментарий, если Вы скачали Пациенты через торрент бесплатно! Внесите свою лепту в развитие PiratBit!
    Комментировать посты могут только пользователи прошедшие не сложную регистрацию
    Показать сообщения:    

    Пациенты через торрент
    Скачать бесплатно Пациенты
    Пациенты скачать торрент
    Пациенты смотреть онлайн
    Cкачать фильм Пациенты бесплатно
    Пациенты скачать торрент в хорошем качестве
    Пациенты смотреть онлайн бесплатно в хорошем качестве


    Вы не можете начинать темы
    Вы не можете отвечать на сообщения
    Вы не можете редактировать свои сообщения
    Вы не можете удалять свои сообщения
    Вы не можете голосовать в опросах
    Вы не можете прикреплять файлы к сообщениям
    Вы можете скачивать файлы