Ссылка на приватное зеркало нашего сайта всего за 1$. Внимание количество ограничено!!!

2 сезон

iTunes

1 сезон

1

iTunes

iTunes

iTunes

1 сезон

RePack

30

ИГРА 18+

pack

ВАЖНО

!!Акция!!

Alien_RageХит недели

RePack

MK11
pack

Забери бонус

RePack

jed

!!Акция!!

Alien_Rage

RePack

fifa19

RePack

Assassins Creed: Odyssey

RePack

NEED FOR SPEED™ PAYBACK

4 сезон

9 сезон

Бесстыжие 9 сезон

Все сериалы

все сериалы на PB.wtf

RePack

FAR CRY 5
  

Так не бывает / Сезон: 1 / Серии: 1-8 из 8 (Наталья Хлопецкая) [2015, Комедия, HDTVRip] pb.wtf

Так не бывает через торрент pb.wtf

Размер: 5.47 GB | Добавлен: 2 года назад | Торрент скачан:52 раза
Скачать  

29-09-2018 15:43 Так не бывает Скачать торрент  

Так не бывает
Год выпуска: 2015
Страна: Россия
Жанр: Комедия
Продолжительность: x 00:49:36
Субтитры: отсутствуют

Режиссер: Наталья Хлопецкая



В ролях:

Виталий Хаев, Вера Воронкова, Людмила Чурсина, Сергей Чирков, Александра Тюфтей, Евгения Розанова, Сергей Годин, Иван Макаревич, Александр Яцко, Алексей Колубков

Описание:

Илья и Маша знакомят родителей во время празднования своей свадьбы. Отношения между отцом Маши Романом Петровичем и матерью Ильи Дарьей Олеговной сразу не заладились. Но проходит год, и неожиданно между ними вспыхивает страсть. Осложняет все то, что Роман Петрович женат...

Качество: HDTVRip
Формат: AVI

Видео: XviD, 1785 Кбит/с, 720x400
Аудио: AC3, 2 ch, 192 Кбит/с
скриншот  скриншот  скриншот  скриншот  скриншот  

Общее
Полное имя : E:\Так не бывает.2015.HDTVRip.by.Nicodem.Files-x\01.Так не бывает.2015.HDTVRip.by.Nicodem.Files-x.avi
Формат : AVI
Формат/Информация : Audio Video Interleave
Размер файла : 701 Мбайт
Продолжительность : 49 м. 18 с.
Общий поток : 1987 Кбит/сек
Программа кодирования : VirtualDubMod 1.5.10.3 | www.virtualdub-fr.org || (build 2550/release)
Библиотека кодирования : VirtualDubMod build 2550/release

Видео
Идентификатор : 0
Формат : MPEG-4 Visual
Профиль формата : Advanced Simple@L5
Настройки формата : BVOP1 / QPel / Custom Matrix
Параметр BVOP формата : 1
Параметр QPel формата : Да
Параметр GMC формата : Без точки перехода
Параметр матрицы формата : Выборочная
Идентификатор кодека : XVID
Идентификатор кодека/Подсказка : XviD
Продолжительность : 49 м. 18 с.
Битрейт : 1785 Кбит/сек
Ширина : 720 пикселей
Высота : 400 пикселей
Соотношение сторон : 16:9
Частота кадров : 25,000 кадров/сек
Цветовое пространство : YUV
Субдискретизация насыщенности : 4:2:0
Битовая глубина : 8 бит
Тип развёртки : Прогрессивная
Метод сжатия : С потерями
Бит/(Пиксели*Кадры) : 0.248
Размер потока : 630 Мбайт (90%)
Библиотека кодирования : XviD 73

Аудио
Идентификатор : 1
Формат : AC-3
Формат/Информация : Audio Coding 3
Идентификатор кодека : 2000
Продолжительность : 49 м. 18 с.
Вид битрейта : Постоянный
Битрейт : 192 Кбит/сек
Каналы : 2 канала
Расположение каналов : Front: L R
Частота : 48,0 КГц
Частота кадров : 31,250 кадров/сек (1536 SPF)
Битовая глубина : 16 бит
Метод сжатия : С потерями
Размер потока : 67,7 Мбайт (10%)
Выравнивание : Разделение по промежуткам
Продолжительность промежутка : 40 мс. (1,00 видеокадр)
Время предзагрузки промежутка : 500 мс.
ServiceKind/String : Complete Main

pb.wtf



Скачать Так не бывает через торрент http://img11.lostpic.net/2018/09/29/61fe423b0aaa1000f4deb977187ee2ec.jpg Скачать фильм Так не бывает через торрент бесплантно в хорошем качестве Описание: Илья и Маша знакомят родителей во время празднования своей свадьбы. Отношения между отцом Маши Романом Петровичем и матерью Ильи ... 10 10 4
Торрент: Зарегистрирован [2018-09-29 15:43] · скачан: 52 раз
Статус: √ проверено
Размер: 5.47 GB
Как cкачать? Как скачать Так не бывает через торрент | qTorrent

% Раздел Тема Автор DL S | L
Наши сериалы [ 8.89 GB ] Так не бывает / Сезон: 1 / Серии: 1-8 из 8 [2015 HDTVRip 720p] bober100 Скачать
1 | 0
Наши сериалы [ 4.34 GB ] Так не бывает / Сезон: 1 / Серии: 1-8 из 8 [2015 HDTVRip] bober100 Скачать
1 | 0

28-11-2019 20:33  

Отключить всю рекламу на сайте

    Дорогой пользователь! Огромная просьба, поблагодарите релизера, оцените раздачу и оставьте свои комментарий, если Вы скачали Так не бывает через торрент бесплатно! Внесите свою лепту в развитие PiratBit!
    Комментировать посты могут только пользователи прошедшие не сложную регистрацию
    Показать сообщения:    

    Так не бывает через торрент
    Скачать бесплатно Так не бывает
    Так не бывает скачать торрент
    Так не бывает смотреть онлайн
    Cкачать фильм Так не бывает бесплатно
    Так не бывает скачать торрент в хорошем качестве
    Так не бывает смотреть онлайн бесплатно в хорошем качестве


    Вы не можете начинать темы
    Вы не можете отвечать на сообщения
    Вы не можете редактировать свои сообщения
    Вы не можете удалять свои сообщения
    Вы не можете голосовать в опросах
    Вы не можете прикреплять файлы к сообщениям
    Вы можете скачивать файлы