Ссылка на приватное зеркало нашего сайта всего за 1$. Внимание количество ограничено!!!

2 сезон

iTunes

1 сезон

1

2 сезон

2 сезон

iTunes

1 сезон

RePack

30

Ultimate

ВАЖНО

ИГРА 18+

pack

RePack

MK11
pack

Забери бонус

RePack

jed

!!Акция!!

Alien_Rage

RePack

fifa19

RePack

Assassins Creed: Odyssey

RePack

NEED FOR SPEED™ PAYBACK

4 сезон

9 сезон

Бесстыжие 9 сезон

Все сериалы

все сериалы на PB.wtf

RePack

FAR CRY 5
  

Полиция Чикаго / Chicago P.D. / Сезон: 5 / Серии: 1-22 (22) (Джо Чаппелль, Марк Тинкер) [2017, боевик, драма, WEB-DLRip] [VO] (Денис Шадинский) pb.wtf

Полиция Чикаго через торрент pb.wtf

Размер: 13.1 GB | Добавлен: 2 года 2 мес. назад | Торрент скачан:36 раз
Скачать  

29-09-2018 19:01 Полиция Чикаго Скачать торрент  

Полиция Чикаго / Chicago P.D.
Год выпуска: 2017
Страна: США
Жанр: Боевик, драма
Продолжительность: 00:42:23
Перевод: Профессиональный (одноголосый закадровый) Денис Шадинский

Режиссёр: Джо Чаппелль, Марк Тинкер
В ролях: Джейсон Бех, Джон Седа, Трэйси Спиридакос, Джесси Ли Соффер, Патрик Флюгер, Марина Скверсьяти, Элиас Котеас, Эми Мортон
Описание: Полицейский департамент Чикаго (Chicago P.D.) — американский телесериал, созданный Дереком Хаасом и Майклом Брандтом, который является спин-оффом шоу «Пожарные Чикаго». В центре сюжета находятся работники полицейского департамента города Чикаго, в частности две группы полицейских, которые находятся на разных ступенях власти.

ratingскриншот  

Доп. информация: В данном релизе присутствует переведённая и озвученная конечная сцена, которая была удалена из последней серии авторами проекта. ВНИМАНИЕ! Смотрите её только после просмотра финальной серии №22

Качество: WEB-DLRip
Формат: AVI
Видео: 720x400 (16:9), 23.976 fps, XviD build 73, 1804 Kbps, 0.26 bits/pixel
Аудио: 48 kHz, AC3 Dolby Digital, 2 ch, 192 Kbps
Субтитры: Отсутствуют




General
Complete name : Downloads\Chicago.P.D.S05.2017.400p.MegaPeer\Chicago.P.D.S05E01.avi
Format : AVI
Format/Info : Audio Video Interleave
File size : 608 MiB
Duration : 42mn 23s
Overall bit rate : 2 006 Kbps
Writing application : VirtualDubMod 1.5.10.3 | www.virtualdub-fr.org || (build 2550/release)
Writing library : VirtualDubMod build 2550/release
Video #0
ID : 0
Format : MPEG-4 Visual
Format profile : Advanced Simple@L5
Format settings, BVOP : 1
Format settings, QPel : No
Format settings, GMC : No warppoints
Format settings, Matrix : Custom
Codec ID : XVID
Codec ID/Hint : XviD
Duration : 42mn 23s
Bit rate : 1 804 Kbps
Width : 720 pixels
Height : 400 pixels
Display aspect ratio : 16:9
Frame rate : 23.976 fps
Color space : YUV
Chroma subsampling : 4:2:0
Bit depth : 8 bits
Scan type : Progressive
Compression mode : Lossy
Bits/(Pixel*Frame) : 0.261
Stream size : 547 MiB (90%)
Writing library : XviD 73
Audio #1
ID : 1
Format : AC-3
Format/Info : Audio Coding 3
Mode extension : CM (complete main)
Format settings, Endianness : Big
Codec ID : 2000
Duration : 42mn 23s
Bit rate mode : Constant
Bit rate : 192 Kbps
Channel(s) : 2 channels
Channel positions : Front: L R
Sampling rate : 48.0 KHz
Bit depth : 16 bits
Compression mode : Lossy
Stream size : 58.2 MiB (10%)
Alignment : Split accross interleaves
Interleave, duration : 42 ms (1.00 video frame)
Interleave, preload duration : 500 ms
скриншот  скриншот  скриншот  
pb.wtf



Скачать Полиция Чикаго через торрент http://i92.fastpic.ru/big/2017/1021/50/79655e908d45f941b9b9a709b2a0bd50.jpg Скачать фильм Полиция Чикаго через торрент бесплантно в хорошем качестве Описание: Полицейский департамент Чикаго (Chicago P.D.) — американский телесериал, созданный Дереком Хаасом и Майклом Брандтом, который ... 10 10 1
Торрент: Зарегистрирован [2018-09-29 19:01] · скачан: 36 раз
Статус: √ проверено
Размер: 13.1 GB
Как cкачать? Как скачать Полиция Чикаго через торрент | qTorrent

28-11-2019 20:33  

Отключить всю рекламу на сайте

    Дорогой пользователь! Огромная просьба, поблагодарите релизера, оцените раздачу и оставьте свои комментарий, если Вы скачали Полиция Чикаго через торрент бесплатно! Внесите свою лепту в развитие PiratBit!
    Комментировать посты могут только пользователи прошедшие не сложную регистрацию
    Показать сообщения:    

    Полиция Чикаго через торрент
    Скачать бесплатно Полиция Чикаго
    Полиция Чикаго скачать торрент
    Полиция Чикаго смотреть онлайн
    Cкачать фильм Полиция Чикаго бесплатно
    Полиция Чикаго скачать торрент в хорошем качестве
    Полиция Чикаго смотреть онлайн бесплатно в хорошем качестве


    Вы не можете начинать темы
    Вы не можете отвечать на сообщения
    Вы не можете редактировать свои сообщения
    Вы не можете удалять свои сообщения
    Вы не можете голосовать в опросах
    Вы не можете прикреплять файлы к сообщениям
    Вы можете скачивать файлы