Ссылка на приватное зеркало нашего сайта всего за 1$. Внимание количество ограничено!!!

2 сезон

iTunes

1 сезон

1

2 сезон

2 сезон

iTunes

1 сезон

RePack

30

Ultimate

ВАЖНО

ИГРА 18+

pack

RePack

MK11
pack

Забери бонус

RePack

jed

!!Акция!!

Alien_Rage

RePack

fifa19

RePack

Assassins Creed: Odyssey

RePack

NEED FOR SPEED™ PAYBACK

4 сезон

9 сезон

Бесстыжие 9 сезон

Все сериалы

все сериалы на PB.wtf

RePack

FAR CRY 5
  

Полиция Чикаго / Chicago P.D. / Сезон: 2 / Серии: 1-23 (23) (Джо Чаппелль, Марк Тинкер) [2014, боевик, драма, WEB-DLRip] [VO] (Денис Шадинский) pb.wtf

Полиция Чикаго через торрент pb.wtf

Размер: 12.79 GB | Добавлен: 2 года 1 мес. назад | Торрент скачан:25 раз
Скачать  

29-09-2018 19:11 Полиция Чикаго Скачать торрент  

Полиция Чикаго / Chicago P.D. Год выпуска: 2014
Страна: США
Жанр: Боевик, драма
Продолжительность: ~ 00:43:00
Перевод: Профессиональный (одноголосый закадровый) Денис Шадинский

Режиссёр: Дерек Хаас

В ролях: Джон Седа, Джейсон Бех, София Буш, Элиас Котеас, Джесси Ли Софер, Арчи Као, Патрик Джон Флюгер, Марина Скверсьяти, ЛаРойс Хоккинс, Мелисса Сейджмиллер

Описание: Полицейский департамент Чикаго (Chicago P.D.) — американский телесериал, созданный Дереком Хаасом и Майклом Брандтом, который является спин-оффом шоу «Пожарные Чикаго». В центре сюжета находятся работники полицейского департамента города Чикаго, в частности две группы полицейских, которые находятся на разных ступенях власти.

ratingскриншот  

Качество: WEB-DLRip
Формат: AVI
Видео кодек: XviD
Аудио кодек: MP3
Видео: XviD, 720x400, 23.976 fps, ~1600 kbps, 0.23 bit/pixel
Аудио #1: Русский (MP3, 48 kHz, 2 ch, 128 kbps)
Аудио #2: Английский (MP3, 48 kHz, 2 ch, 128 kbps)
Субтитры: нет
Общее
Полное имя : F:\Полиция Чикаго\Chicago.PD.S02.WEB-DLRip.Rus.Eng.MediaClub\Chicago.PD.S02E01.WEB-DLRip.Rus.Eng.MediaClub.avi
Формат : AVI
Формат/Информация : Audio Video Interleave
Размер файла : 574 Мбайт
Продолжительность : 42 м.
Общий поток : 1870 Кбит/сек
Название фильма : Chicago PD S02E01 - Call It Macaroni
Программа кодирования : VirtualDubMod 1.5.10.2 (build 2540/release)

Видео
Идентификатор : 0
Формат : MPEG-4 Visual
Профиль формата : Advanced Simple@L5
Параметр BVOP формата : Нет
Параметр QPel формата : Нет
Параметр GMC формата : Без точки перехода
Параметр матрицы формата : Default (MPEG)
Идентификатор кодека : XVID
Идентификатор кодека/Подсказка : XviD
Продолжительность : 42 м.
Битрейт : 1600 Кбит/сек
Ширина : 720 пикселей
Высота : 400 пикселей
Соотношение сторон : 16:9
Частота кадров : 23,976 кадра/сек
Цветовое пространство : YUV
Субдискретизация насыщенности : 4:2:0
Битовая глубина : 8 бит
Тип развёртки : Прогрессивная
Метод сжатия : С потерями
Бит/(Пиксели*Кадры) : 0.232
Размер потока : 491 Мбайт (86%)
Библиотека кодирования : XviD 1.2.1 (UTC 2008-12-04)

Аудио #1
Идентификатор : 1
Формат : MPEG Audio
Версия формата : Version 1
Профиль формата : Layer 3
Идентификатор кодека : 55
Идентификатор кодека/Подсказка : MP3
Продолжительность : 42 м.
Вид битрейта : Постоянный
Битрейт : 128 Кбит/сек
Каналы : 2 канала
Частота : 48,0 КГц
Метод сжатия : С потерями
Размер потока : 39,3 Мбайт (7%)
Выравнивание : Соединение по промежуткам
Продолжительность промежутка : 42 мс. (1,00 видеокадр)
Время предзагрузки промежутка : 504 мс.
Библиотека кодирования : LAME3.99r
Настройки программы : -m s -V 4 -q 2 -lowpass 17 -b 128

Аудио #2
Идентификатор : 2
Формат : MPEG Audio
Версия формата : Version 1
Профиль формата : Layer 3
Режим : Joint stereo
Расширение режима : MS Stereo
Идентификатор кодека : 55
Идентификатор кодека/Подсказка : MP3
Продолжительность : 42 м.
Вид битрейта : Постоянный
Битрейт : 128 Кбит/сек
Каналы : 2 канала
Частота : 48,0 КГц
Метод сжатия : С потерями
Размер потока : 39,3 Мбайт (7%)
Выравнивание : Соединение по промежуткам
Продолжительность промежутка : 42 мс. (1,00 видеокадр)
Время предзагрузки промежутка : 504 мс.
Библиотека кодирования : LAME3.99r
Настройки программы : -m j -V 4 -q 3 -lowpass 17 -b 128
скриншот  скриншот  скриншот  
pb.wtf



Скачать Полиция Чикаго через торрент http://i63.fastpic.ru/big/2014/1017/cc/1241e20fe2bcc7caa8a7167cfcad76cc.jpg Скачать фильм Полиция Чикаго через торрент бесплантно в хорошем качестве Описание: Полицейский департамент Чикаго (Chicago P.D.) — американский телесериал, созданный Дереком Хаасом и Майклом Брандтом, который ... 10 10 1
Торрент: Зарегистрирован [2018-09-29 19:11] · скачан: 25 раз
Статус: √ проверено
Размер: 12.79 GB
Как cкачать? Как скачать Полиция Чикаго через торрент | qTorrent

28-11-2019 20:33  

Отключить всю рекламу на сайте

    Дорогой пользователь! Огромная просьба, поблагодарите релизера, оцените раздачу и оставьте свои комментарий, если Вы скачали Полиция Чикаго через торрент бесплатно! Внесите свою лепту в развитие PiratBit!
    Комментировать посты могут только пользователи прошедшие не сложную регистрацию
    Показать сообщения:    

    Полиция Чикаго через торрент
    Скачать бесплатно Полиция Чикаго
    Полиция Чикаго скачать торрент
    Полиция Чикаго смотреть онлайн
    Cкачать фильм Полиция Чикаго бесплатно
    Полиция Чикаго скачать торрент в хорошем качестве
    Полиция Чикаго смотреть онлайн бесплатно в хорошем качестве


    Вы не можете начинать темы
    Вы не можете отвечать на сообщения
    Вы не можете редактировать свои сообщения
    Вы не можете удалять свои сообщения
    Вы не можете голосовать в опросах
    Вы не можете прикреплять файлы к сообщениям
    Вы можете скачивать файлы