Ссылка на приватное зеркало нашего сайта всего за 1$. Внимание количество ограничено!!!

2 сезон

iTunes

1 сезон

1

2 сезон

2 сезон

iTunes

1 сезон

RePack

30

Новинка

ВАЖНО

ИГРА 18+

pack

RePack

MK11
pack

Забери бонус

RePack

jed

!!Акция!!

Alien_Rage

RePack

fifa19

RePack

Assassins Creed: Odyssey

RePack

NEED FOR SPEED™ PAYBACK

4 сезон

9 сезон

Бесстыжие 9 сезон

Все сериалы

все сериалы на PB.wtf

RePack

FAR CRY 5
  

Соболезную вашей утрате / Sorry for Your Loss / Сезон: 1 / Серии: 1-10 из 10 (Джеймс Понсольдт, Эллисон Андерс, Джеми Бэббит) [2018, Драма, WEBRip] [DVO] (Gears Media) pb.wtf

Соболезную вашей утрате через торрент pb.wtf

Размер: 3.26 GB | Добавлен: 1 год 9 мес. назад | Торрент скачан:8 раз
Скачать  

29-09-2018 19:41 Соболезную вашей утрате Скачать торрент  

Соболезную вашей утрате / Sorry for Your Loss
Год выпуска: 2018
Страна: США
Жанр: Драма
Продолжительность: ~ 00:28:00
Перевод: Профессиональный (двухголосый закадровый)[Gears Media]

Режиссёр: Джеймс Понсольдт, Эллисон Андерс, Джеми Бэббит

В ролях: Элизабет Олсен, Йован Адепо, Мамуду Ати, Джанет МакТир, Келли Мари Трэн, Аиша Альфа, Шэйн Брэйди, Райан Рейли, Лорен Робертсон

Описание:
Это история о том, как недавно овдовевшая Ли Шоу переживает утрату супруга, справляется со скорбью и пытается восстановить почти утерянные отношения с давними друзьями и семьёй.

rating

Сэмпл: http://multi-up.com/1209915

Качество: WEBRip
Формат: AVI
Видео: XviD, 720x400 at 23.976 fps, ~1000 kbps avg
Аудио1: Russian, MP3, 48 kHz, 2 ch, 128 kbps
Аудио2: English, MP3, 48 kHz, 2 ch, 128 kbps
Субтитры: нет
Format : AVI
Format/Info : Audio Video Interleave
File size : 263 MiB
Duration : 28 min 42 s
Overall bit rate : 1 279 kb/s
Writing application : Lavf57.29.101

Video
ID : 0
Format : xvid
Codec ID : xvid
Duration : 28 min 42 s
Bit rate : 1 002 kb/s
Width : 720 pixels
Height : 400 pixels
Display aspect ratio : 16:9
Frame rate : 23.976 (24000/1001) FPS
Scan type : Progressive
Bits/(Pixel*Frame) : 0.145
Stream size : 206 MiB (78%)

Audio #1
ID : 1
Format : MPEG Audio
Format version : Version 1
Format profile : Layer 3
Format settings : Joint stereo / MS Stereo
Codec ID : 55
Codec ID/Hint : MP3
Duration : 28 min 42 s
Bit rate mode : Constant
Bit rate : 128 kb/s
Channel(s) : 2 channels
Sampling rate : 48.0 kHz
Compression mode : Lossy
Stream size : 26.3 MiB (10%)
Alignment : Aligned on interleaves
Interleave, duration : 24 ms (0.58 video frame)
Interleave, preload duratio : 24 ms
Title : Gears Media
Writing library : LAME3.99.5

Audio #2
ID : 2
Format : MPEG Audio
Format version : Version 1
Format profile : Layer 3
Format settings : Joint stereo / MS Stereo
Codec ID : 55
Codec ID/Hint : MP3
Duration : 28 min 42 s
Bit rate mode : Constant
Bit rate : 128 kb/s
Channel(s) : 2 channels
Sampling rate : 48.0 kHz
Compression mode : Lossy
Stream size : 26.3 MiB (10%)
Alignment : Aligned on interleaves
Interleave, duration : 24 ms (0.58 video frame)
Interleave, preload duratio : 24 ms
скриншот  скриншот  скриншот  
Внимание! Раздача ведётся путём добавления новых серий; при каждом добавлении создаётся новый торрент. Чтобы начать докачку новой серии, пользователям необходимо сделать следующее:
(1) остановить скачивание,
(2) удалить старый торрент у себя из клиента (старые серии удалять не надо),
(3) скачать новый торрент и запустить его у себя в клиенте вместо старого, при этом указать клиенту путь в старую папку куда и должно происходить скачивание новых серий.

Ваш клиент при этом должен произвести хеширование (проверку) старой папки (если не производит сам - помогите ему сделать это), и будет докачивать только те серии которых у вас ещё нет. Старые серии при этом не удаляются, а продолжают раздаваться!

Eсли вы уже удалили старые серии, то предотвратить повторную закачку старых серий можно, отжав галочку в соответствующих местах при запуске нового торрента. По возможности, желательно не удалять старые серии как можно дольше чтобы релизёр не столько продолжал раздавать старые серии, а смог сконцентрироваться на новых.
pb.wtf



Скачать Соболезную вашей утрате через торрент http://i89.fastpic.ru/big/2018/0926/2a/d538ec1231c91a58f92314e8a66fc02a.jpg Скачать фильм Соболезную вашей утрате через торрент бесплантно в хорошем качестве Описание:Это история о том, как недавно овдовевшая Ли Шоу переживает утрату супруга, справляется со скорбью и пытается восстановить почти ... 10 10 1
Торрент: Зарегистрирован [2019-02-01 11:50] · скачан: 8 раз
Статус: √ проверено
Размер: 3.26 GB
Как cкачать? Как скачать Соболезную вашей утрате через торрент | qTorrent

% Раздел Тема Автор DL S | L
Зарубежные сериалы [ 21.79 GB ] Соболезную вашей утрате / Sorry for Your Loss / Сезон: 2 / Серии: 1-10 из 10 [2019 WEBRip 1080p] [MVO] killermax2013 Скачать
1 | 0
Зарубежные сериалы [ 2.5 GB ] Соболезную вашей утрате / Sorry for Your Loss / Сезон: 1 / Серии: 1-10 из 10 [2018 WEBRip 1080p] [MVO] killermax2013 Скачать
1 | 0

28-11-2019 20:33  

Отключить всю рекламу на сайте

    Дорогой пользователь! Огромная просьба, поблагодарите релизера, оцените раздачу и оставьте свои комментарий, если Вы скачали Соболезную вашей утрате через торрент бесплатно! Внесите свою лепту в развитие PiratBit!
    Комментировать посты могут только пользователи прошедшие не сложную регистрацию
    Показать сообщения:    

    Соболезную вашей утрате через торрент
    Скачать бесплатно Соболезную вашей утрате
    Соболезную вашей утрате скачать торрент
    Соболезную вашей утрате смотреть онлайн
    Cкачать фильм Соболезную вашей утрате бесплатно
    Соболезную вашей утрате скачать торрент в хорошем качестве
    Соболезную вашей утрате смотреть онлайн бесплатно в хорошем качестве


    Вы не можете начинать темы
    Вы не можете отвечать на сообщения
    Вы не можете редактировать свои сообщения
    Вы не можете удалять свои сообщения
    Вы не можете голосовать в опросах
    Вы не можете прикреплять файлы к сообщениям
    Вы можете скачивать файлы