новый адрес пиратбит piratbit
Мега распродажа FORZA HORIZON 4 ULTIMATE+ВСЕ DLC+ОНЛАЙН всего за 499р. 349 руб. (супер цена). Внимание количество ограничено!!!

iTunes

1+1

iTunes

мы

iTunes

1

iTunes

Чернобыль

iTunes

Ральф против интернета

Лицензия

ПШазам

Лицензия

Игра престолов

Лицензия

30
pack

ВАЖНО

!!Акция!!

Alien_RageХит недели

RePack

Resident Evil 21

ИГРА 18+

pack

RePack

Metro:Exodus

!!Акция!!

Alien_Rage

RePack

fifa19

RePack

Assassins Creed: Odyssey

RePack

NEED FOR SPEED™ PAYBACK

3 сезон

9 сезон

Бесстыжие 9 сезон

Все сериалы

все сериалы на PB.wtf

RePack

FAR CRY 5
Ребята, катастрофически не хватает 1900р. для оплаты серверов за Октябрь (всвязи с блокировками трафик упал в 3 раза), 1-2р., выручайте.
  

Вопреки судьбе (Сергей Гиргель) [2018 г., Мелодрама, WEB-DLRip, Не требуется] pb.wtf

Вопреки судьбе через торрент pb.wtf

Размер: 1.37 GB | Добавлен: 1 год 1 мес. назад | Торрент скачан:54 раза
Скачать  

30-09-2018 05:35 Вопреки судьбе Скачать торрент  

Вопреки судьбе
Год выпуска: 2018
Страна: Россия
Жанр: Мелодрама
Продолжительность: 01:26:50
Перевод: Не требуется
Субтитры: Отсутствуют

Режиссер: Сергей Гиргель



В ролях: Галина Петрова, Александр Цуркан, Артем Григорьев, Анастасия Филиппова, Евгений Казакевич, Юлианна Михневич, Тамара Миронова, Антон Жуков, Дарья Баранова, Александр Кашперов

Описание: Однажды Зоя, которая верит в потусторонние силы, уговаривает свою скептически настроенную к таким вещам подругу Дашу сходить вместе к гадалке. Та предсказывает Даше печальную судьбу: девушка станет причиной гибели своего любимого мужчины. Но ведь у Даши нет парня. Поэтому девушка не восприняла эти слова всерьез. Но когда она влюбляется в Вадима, пророчество не дает ей покоя. Вскоре Вадим попадает в аварию. Неужели невозможно изменить судьбу?

Качество: WEB-DLRip
Формат: AVI
Видео кодек: XviD
Аудио кодек: AC3
Видео: XviD, 720x504 , 25.0fps, 2055 Kbps
Аудио#1: AC3 , 2 ch , 48 kHz , 192 kbps
скриншот   скриншот   скриншот   скриншот   скриншот   скриншот   скриншот   скриншот  

Общее
Полное имя : D:Вопреки судьбе.2017.WEB-DLRip.by.Nicodem..avi
Формат : AVI
Формат/Информация : Audio Video Interleave
Размер файла : 1,37 Гбайт
Продолжительность : 1 ч. 26 м.
Общий поток : 2256 Кбит/сек
Программа кодирования : VirtualDubMod 1.5.10.3 | www.virtualdub-fr.org || (build 2550/release)
Библиотека кодирования : VirtualDubMod build 2550/release

Видео
Идентификатор : 0
Формат : MPEG-4 Visual
Профиль формата : Advanced Simple@L5
Параметр BVOP формата : 1
Параметр QPel формата : Нет
Параметр GMC формата : Без точки перехода
Параметр матрицы формата : Выборочная
Идентификатор кодека : XVID
Идентификатор кодека/Подсказка : XviD
Продолжительность : 1 ч. 26 м.
Битрейт : 2055 Кбит/сек
Ширина : 720 пикселей
Высота : 400 пикселей
Соотношение сторон : 16:9
Частота кадров : 25,000 кадров/сек
Цветовое пространство : YUV
Субдискретизация насыщенности : 4:2:0
Битовая глубина : 8 бит
Тип развёртки : Прогрессивная
Метод сжатия : С потерями
Бит/(Пиксели*Кадры) : 0.285
Размер потока : 1,25 Гбайт (91%)
Библиотека кодирования : XviD 73

Аудио
Идентификатор : 1
Формат : AC-3
Формат/Информация : Audio Coding 3
Расширение режима : CM (complete main)
Параметр Endianness формата : Big
Идентификатор кодека : 2000
Продолжительность : 1 ч. 26 м.
Вид битрейта : Постоянный
Битрейт : 192 Кбит/сек
Каналы : 2 канала
Расположение каналов : Front: L R
Частота : 48,0 КГц
Битовая глубина : 16 бит
Метод сжатия : С потерями
Размер потока : 119 Мбайт (9%)
Выравнивание : Разделение по промежуткам
Продолжительность промежутка : 40 мс. (1,00 видеокадр)
Время предзагрузки промежутка : 500 мс.

pb.wtf



Скачать Вопреки судьбе через торрент http://pic1.kartinco.top/images/11/gzn8n.jpg Скачать фильм Вопреки судьбе через торрент бесплантно в хорошем качестве Описание: Однажды Зоя, которая верит в потусторонние силы, уговаривает свою скептически настроенную к таким вещам подругу Дашу сходить ... 10 10 6
Торрент: Зарегистрирован [2018-09-30 05:35] · скачан: 54 раз
Статус: √ проверено
Размер: 1.37 GB
Как cкачать? Как скачать Вопреки судьбе через торрент | qTorrent

% Раздел Тема Автор DL S | L
Наши новые фильмы 2018-2019 [ 701 MB ] Вопреки судьбе [2018 Мело WEB-DLRip ] | Sherif Скачать
1 | 0


>> Регистрируемся здесь <<






Отзывы и комментарии о схеме читаем и пишем здесь: ---> Отзывы и комментарии о схеме

Новые благодарочки в телеграм довольных пользователей:
скриншот   скриншот   скриншот   скриншот   скриншот
    Дорогой пользователь! Огромная просьба, поблагодарите релизера, оцените раздачу и оставьте свои комментарий, если Вы скачали Вопреки судьбе через торрент бесплатно! Внесите свою лепту в развитие PiratBit!
    Комментировать посты могут только пользователи прошедшие не сложную регистрацию
    Показать сообщения:    

    Вопреки судьбе через торрент
    Скачать бесплатно Вопреки судьбе
    Вопреки судьбе скачать торрент
    Вопреки судьбе смотреть онлайн
    Cкачать фильм Вопреки судьбе бесплатно
    Вопреки судьбе скачать торрент в хорошем качестве
    Вопреки судьбе смотреть онлайн бесплатно в хорошем качестве


    Вы не можете начинать темы
    Вы не можете отвечать на сообщения
    Вы не можете редактировать свои сообщения
    Вы не можете удалять свои сообщения
    Вы не можете голосовать в опросах
    Вы не можете прикреплять файлы к сообщениям
    Вы можете скачивать файлы