Всегда рабочее зеркало без VPN и Proxy просто перед .vidak.icu напиши любое слово или цифру, Пример http://lou8.vidak.icu

MVO

2 сезон

2 сезон

1

1 сезон

iTunes

2 сезон

13

1 сезон

Deluxe

pack

Рекомендуем

Пиратка

30

ВАЖНО

RePack

MK11

RePack

jed

RePack

fifa19

RePack

RDR2

RePack

NEED FOR SPEED™ PAYBACK

Кинопоиск HD

6 сезон

 Острые козырьки 6 сезон

Все сериалы

все сериалы на PB.wtf

RePack

FAR CRY 5

Anonymous, нам критически не хватает 5601 руб. на оплату серверов и переферии за Апрель, помоги нам пожалуйста, вся надежда только на тебя. В благодарность мы отключим тебе всю рекламу на сайте!

×
  
Magnet ссылка

Прочь / Get Out (Джордан Пил) [2017, ужасы, детектив, триллер, UHD BDRip 2160p] DUB + MVO [AlexFilm] + AVO [M. Яроцкий] pb.wtf

Прочь через торрент pb.wtf

Размер: 12.57 GB | Добавлен: 3 года 7 мес. назад | Торрент скачан:77 раз
Смотреть онлайн Прочь | Скачать    Ребята, помогите собрать деньги на оплату серверов!!!

30-09-2018 06:03 Прочь Скачать торрент  

Прочь / Get Out«Знакомство с родителями не всегда заканчивается свадьбой»

Год выпуска: 2017
Страна: Япония, США
Жанр: ужасы, детектив, триллер
Продолжительность: 01:44:05
Перевод: Дублированный, профессиональный многоголосый, авторский
Субтитры: Русские, английские
Режиссер: Джордан Пил
В ролях:

Дэниэл Калуя (Chris Washington), Эллисон Уильямс (Rose Armitage), Кэтрин Кинер (Missy Armitage), Брэдли Уитфорд (Dean Armitage), Калеб Лэндри Джонс (Jeremy Armitage), Маркус Хендерсон (Walter), Бетти Гэбриел (Georgina), Лейкит Стэнфилд (Andre Logan King), Стивен Рут (Jim Hudson), Лил Релл (Rod Williams), Эшли ЛеКонте Кэмпбелл (Lisa Deets), Джон Уилмот (Gordon Greene)
Описание:
Знакомство с родителями подружки не предвещает молодому фотографу из Нью-Йорка ничего хорошего, ведь семья девушки принадлежит к элитному обществу и живет в уединенном загородном доме. Если бы он только знал истинную причину своего приглашения, то немедленно бросился бы прочь...
Рейтинг:

MPAA: R - Лицам до 17 лет обязательно присутствие взрослого
Качество: UHD BDRip 2160p
Формат: MKV
Видео: HEVC, HDR, 12.7 Mбит/с, 3840x1606, 23.976 кадр/с
Аудио #1: Русский / 48 kHz, DTS, 5.1, 768 Kbps-Дублированное [Лицензия]
Аудио #2: Русский / 48 kHz, DTS, 5.1, 1510 Kbps- Авторский | Михаил Яроцкий (kyberpunk)
Аудио #3: Русский / 48 kHz, AC3, 5.1, 640 Kbps-Профессиональный многоголосый | AlexFilm
Аудио #4: Английский /48 kHz, DTS, 5.1, 1510 Kbps-| Оригинал
Навигация по главам: есть
Complete name : E:\Movies\Get.Out.2017.PROPER.2160p.UHD.BluRay.X265-SpaceHD13.mkv
Format : Matroska
Format version : Version 4 / Version 2
File size : 12.6 GiB
Duration : 1 h 44 min
Overall bit rate : 17.3 Mb/s
Movie name : Get.Out.2017.PROPER.2160p.UHD.BluRay.X265-SpaceHD13
Encoded date : UTC 2018-09-28 19:08:06
Writing application : mkvmerge v27.0.0 ('Metropolis') 64-bit
Writing library : libebml v1.3.6 + libmatroska v1.4.9
Cover : Yes
Attachments : cover.jpg

Video
ID : 1
Format : HEVC
Format/Info : High Efficiency Video Coding
Commercial name : HDR10
Format profile : Main 10@L5.1@High
Codec ID : V_MPEGH/ISO/HEVC
Duration : 1 h 44 min
Bit rate : 12.7 Mb/s
Width : 3 840 pixels
Height : 1 606 pixels
Display aspect ratio : 2.40:1
Frame rate mode : Constant
Frame rate : 23.976 (24000/1001) FPS
Color space : YUV
Chroma subsampling : 4:2:0 (Type 2)
Bit depth : 10 bits
Bits/(Pixel*Frame) : 0.086
Stream size : 9.26 GiB (74%)
Title : Get.Out.2017.PROPER.2160p.UHD.BluRay.X265-SpaceHD13
Writing library : x265 2.6+4-f7498acb3874:[Windows][GCC 7.2.0][64 bit] 10bit
Encoding settings : cpuid=1173503 / frame-threads=4 / numa-pools=16 / wpp / no-pmode / no-pme / no-psnr / no-ssim / log-level=2 / input-csp=1 / input-res=3840x1606 / interlace=0 / total-frames=149736 / level-idc=51 / high-tier=1 / uhd-bd=0 / ref=4 / no-allow-non-conformance / repeat-headers / annexb / aud / hrd / info / hash=0 / no-temporal-layers / no-open-gop / min-keyint=24 / keyint=240 / bframes=4 / b-adapt=2 / b-pyramid / bframe-bias=0 / rc-lookahead=25 / lookahead-slices=4 / scenecut=40 / no-intra-refresh / ctu=64 / min-cu-size=8 / rect / no-amp / max-tu-size=32 / tu-inter-depth=1 / tu-intra-depth=1 / limit-tu=0 / rdoq-level=2 / dynamic-rd=0.00 / no-ssim-rd / signhide / no-tskip / nr-intra=0 / nr-inter=0 / no-constrained-intra / no-strong-intra-smoothing / max-merge=3 / limit-refs=3 / limit-modes / me=3 / subme=3 / merange=57 / temporal-mvp / weightp / no-weightb / no-analyze-src-pics / deblock=-3:-3 / no-sao / no-sao-non-deblock / rd=4 / no-early-skip / rskip / no-fast-intra / no-tskip-fast / no-cu-lossless / no-b-intra / no-splitrd-skip / rdpenalty=0 / psy-rd=2.00 / psy-rdoq=1.00 / no-rd-refine / analysis-reuse-mode=0 / no-lossless / cbqpoffs=0 / crqpoffs=0 / rc=crf / crf=17.0 / qcomp=0.60 / qpstep=4 / stats-write=0 / stats-read=0 / vbv-maxrate=160000 / vbv-bufsize=160000 / vbv-init=0.9 / crf-max=0.0 / crf-min=0.0 / ipratio=1.40 / pbratio=1.30 / aq-mode=1 / aq-strength=1.00 / cutree / zone-count=0 / no-strict-cbr / qg-size=32 / no-rc-grain / qpmax=69 / qpmin=0 / no-const-vbv / sar=1 / overscan=0 / videoformat=5 / range=0 / colorprim=9 / transfer=16 / colormatrix=9 / chromaloc=1 / chromaloc-top=2 / chromaloc-bottom=2 / display-window=0 / master-display=G(13250,34500)B(7500,3000)R(34000,16000)WP(15635,16450)L(10000000,0) / max-cll=0,0 / min-luma=0 / max-luma=1023 / log2-max-poc-lsb=8 / vui-timing-info / vui-hrd-info / slices=1 / opt-qp-pps / opt-ref-list-length-pps / no-multi-pass-opt-rps / scenecut-bias=0.05 / no-opt-cu-delta-qp / no-aq-motion / hdr / hdr-opt / no-dhdr10-opt / analysis-reuse-level=5 / scale-factor=0 / refine-intra=0 / refine-inter=0 / refine-mv=0 / no-limit-sao / ctu-info=0 / no-lowpass-dct / refine-mv-type=0 / copy-pic=1
Default : Yes
Forced : No
Color range : Limited
Color primaries : BT.2020
Transfer characteristics : PQ
Matrix coefficients : BT.2020 non-constant
Mastering display color pri : Display P3
Mastering display luminance : min: 0.0000 cd/m2, max: 1000 cd/m2

Audio #1
ID : 2
Format : DTS
Format/Info : Digital Theater Systems
Codec ID : A_DTS
Duration : 1 h 44 min
Bit rate mode : Constant
Bit rate : 768 kb/s
Channel(s) : 6 channels
Channel layout : C L R Ls Rs LFE
Sampling rate : 48.0 kHz
Frame rate : 93.750 FPS (512 SPF)
Bit depth : 24 bits
Compression mode : Lossy
Stream size : 572 MiB (4%)
Title : Дубляж-BD CEE
Language : Russian
Default : Yes
Forced : No

Audio #2
ID : 3
Format : DTS
Format/Info : Digital Theater Systems
Codec ID : A_DTS
Duration : 1 h 44 min
Bit rate mode : Constant
Bit rate : 1 510 kb/s
Channel(s) : 6 channels
Channel layout : C L R Ls Rs LFE
Sampling rate : 48.0 kHz
Frame rate : 93.750 FPS (512 SPF)
Bit depth : 24 bits
Compression mode : Lossy
Stream size : 1.10 GiB (9%)
Title : Михаил Яроцкий (kyberpunk)
Language : Russian
Default : No
Forced : No

Audio #3
ID : 4
Format : AC-3
Format/Info : Audio Coding 3
Commercial name : Dolby Digital
Codec ID : A_AC3
Duration : 1 h 44 min
Bit rate mode : Constant
Bit rate : 640 kb/s
Channel(s) : 6 channels
Channel layout : L R C LFE Ls Rs
Sampling rate : 48.0 kHz
Frame rate : 31.250 FPS (1536 SPF)
Bit depth : 16 bits
Compression mode : Lossy
Stream size : 476 MiB (4%)
Title : AlexFilm
Language : Russian
Service kind : Complete Main
Default : No
Forced : No

Audio #4
ID : 5
Format : DTS
Format/Info : Digital Theater Systems
Codec ID : A_DTS
Duration : 1 h 44 min
Bit rate mode : Constant
Bit rate : 1 510 kb/s
Channel(s) : 6 channels
Channel layout : C L R Ls Rs LFE
Sampling rate : 48.0 kHz
Frame rate : 93.750 FPS (512 SPF)
Bit depth : 24 bits
Compression mode : Lossy
Stream size : 1.10 GiB (9%)
Title : Оригинал
Language : English
Default : No
Forced : No

Text #1
ID : 6
Format : PGS
Muxing mode : zlib
Codec ID : S_HDMV/PGS
Codec ID/Info : Picture based subtitle format used on BDs/HD-DVDs
Duration : 1 h 39 min
Bit rate : 38.2 kb/s
Count of elements : 1712
Stream size : 27.2 MiB (0%)
Language : Russian
Default : Yes
Forced : No

Text #2
ID : 7
Format : PGS
Muxing mode : zlib
Codec ID : S_HDMV/PGS
Codec ID/Info : Picture based subtitle format used on BDs/HD-DVDs
Duration : 1 h 34 min
Bit rate : 381 b/s
Count of elements : 20
Stream size : 264 KiB (0%)
Language : Russian
Default : No
Forced : No

Text #3
ID : 8
Format : PGS
Muxing mode : zlib
Codec ID : S_HDMV/PGS
Codec ID/Info : Picture based subtitle format used on BDs/HD-DVDs
Duration : 1 h 38 min
Bit rate : 43.9 kb/s
Count of elements : 2380
Stream size : 31.0 MiB (0%)
Language : Russian
Default : No
Forced : No

Text #4
ID : 9
Format : PGS
Muxing mode : zlib
Codec ID : S_HDMV/PGS
Codec ID/Info : Picture based subtitle format used on BDs/HD-DVDs
Duration : 1 h 38 min
Bit rate : 46.8 kb/s
Count of elements : 2464
Stream size : 33.1 MiB (0%)
Language : English
Default : No
Forced : No

Text #5
ID : 10
Format : PGS
Muxing mode : zlib
Codec ID : S_HDMV/PGS
Codec ID/Info : Picture based subtitle format used on BDs/HD-DVDs
Duration : 1 h 38 min
Bit rate : 52.7 kb/s
Count of elements : 2826
Stream size : 37.3 MiB (0%)
Language : English
Default : No
Forced : No

Text #6
ID : 11
Format : PGS
Muxing mode : zlib
Codec ID : S_HDMV/PGS
Codec ID/Info : Picture based subtitle format used on BDs/HD-DVDs
Duration : 1 h 38 min
Bit rate : 36.9 kb/s
Count of elements : 2827
Stream size : 26.1 MiB (0%)
Language : English
Default : No
Forced : No

Text #7
ID : 12
Format : PGS
Muxing mode : zlib
Codec ID : S_HDMV/PGS
Codec ID/Info : Picture based subtitle format used on BDs/HD-DVDs
Duration : 1 h 43 min
Bit rate : 62.3 kb/s
Count of elements : 3142
Stream size : 46.2 MiB (0%)
Language : English
Default : No
Forced : No

Menu
00:00:00.000 : en:00:00:00.000
00:04:52.918 : en:00:04:52.918
00:10:13.613 : en:00:10:13.613
00:14:02.341 : en:00:14:02.341
00:19:07.563 : en:00:19:07.563
00:21:49.517 : en:00:21:49.517
00:26:07.441 : en:00:26:07.441
00:30:51.099 : en:00:30:51.099
00:37:19.571 : en:00:37:19.571
00:42:16.951 : en:00:42:16.951
00:48:03.255 : en:00:48:03.255
00:54:13.667 : en:00:54:13.667
00:57:38.372 : en:00:57:38.372
01:03:33.893 : en:01:03:33.893
01:10:48.995 : en:01:10:48.995
01:15:36.449 : en:01:15:36.449
01:22:02.626 : en:01:22:02.626
01:26:13.502 : en:01:26:13.502
01:32:24.497 : en:01:32:24.497
01:40:22.475 : en:01:40:22.475
pb.wtf



Скачать Прочь через торрент https://c.radikal.ru/c27/1809/b0/56502f3144da.png Скачать, смотреть онлайн Прочь бесплантно в хорошем качестве Описание: Знакомство с родителями подружки не предвещает молодому фотографу из Нью-Йорка ничего хорошего, ведь семья девушки принадлежит к ... 10 10 5
Info! Золотая раздача, скачанное не засчитывается.
Торрент: Зарегистрирован [2018-09-30 06:03] · скачан: 77 раз
Статус: √ проверено
Размер: 12.57 GB
Как cкачать? Как скачать Прочь через торрент | UTorrent

% Раздел Тема Автор DL S | L
Фильмы с авторской озвучкой [ 1.47 GB ] Прочь / Get Out [2017 BDRip] [AVO] killermax2013 Скачать
1 | 0
Фильмы до 2000 г. [ 934 MB ] Укуренные 7 / Прочь из моей комнаты! / Get Out of My Room [1985 музыка DVDRip] VO killermax2013 Скачать
1 | 0
Фильмы (Blu-ray, BD-Remux, HDDVD) [ 39.65 GB ] Прочь / Get Out [2017 Blu-Ray CEE 1080p] Russian Mafia Скачать
1 | 0
Фильмы [HD 720p, 1080p] (Хороший звук DUB, MVO) [ 2.36 GB ] Прочь / Get Out [2017 BDRip 1080p HEVC ()] Мичман37 Скачать
1 | 2
R.G. Resident & PiratVoice - Фильмы, Видео [ 5.65 GB ] Прочь / Get Out [2017 BDRip 720p] - + MVO + AVO - R.G.Resident schultz Скачать
1 | 0
Ultra HD (UHD: 2K, 4K, 8K) — видео сверхвысокой чёткости [ 61.91 GB ] Прочь / Get Out [2017 UHD BDRemux 2160p] MVO [AlexFilm] +2xAVO [Яроцкий Назаров] +DUB [] bober100 Скачать
2 | 0
Фильмы 2017 [DVDrip, WEB-DLRip, HDrip] (DUB, MVO) [ 1.46 GB ] Прочь / Get Out [2017 BDRip-AVC от sokol_ok] sokol_ok Скачать
2 | 0

28-11-2019 20:33  

Отключить всю рекламу на сайте

    Дорогой пользователь! Огромная просьба, поблагодарите релизера, оцените раздачу и оставьте свои комментарий, если Вы скачали Прочь через торрент бесплатно!
    Комментировать посты могут только пользователи прошедшие не сложную регистрацию
    Показать сообщения:    

    Прочь через торрент
    Скачать бесплатно Прочь
    Прочь скачать торрент
    Прочь смотреть онлайн
    Cкачать фильм Прочь бесплатно
    Прочь скачать торрент в хорошем качестве
    Прочь смотреть онлайн бесплатно в хорошем качестве


    Вы не можете начинать темы
    Вы не можете отвечать на сообщения
    Вы не можете редактировать свои сообщения
    Вы не можете удалять свои сообщения
    Вы не можете голосовать в опросах
    Вы не можете прикреплять файлы к сообщениям
    Вы можете скачивать файлы