новый адрес пиратбит piratbit
Мега распродажа FORZA HORIZON 4 ULTIMATE+ВСЕ DLC+ОНЛАЙН всего за 499р. 349 руб. (супер цена). Внимание количество ограничено!!!

iTunes

1+1

iTunes

мы

iTunes

1

iTunes

Чернобыль

iTunes

Ральф против интернета

Лицензия

ПШазам

Лицензия

Игра престолов

Лицензия

30
pack

ВАЖНО

!!Акция!!

Alien_RageХит недели

RePack

Resident Evil 21

ИГРА 18+

pack

RePack

Metro:Exodus

!!Акция!!

Alien_Rage

RePack

fifa19

RePack

Assassins Creed: Odyssey

RePack

NEED FOR SPEED™ PAYBACK

3 сезон

9 сезон

Бесстыжие 9 сезон

Все сериалы

все сериалы на PB.wtf

RePack

FAR CRY 5
Ребята, катастрофически не хватает 1900р. для оплаты серверов за Октябрь (всвязи с блокировками трафик упал в 3 раза), 1-2р., выручайте.
  

Дерсу Узала (Агаси Бабаян) [1961, СССР, приключения, DVDRip от AVP Studio] pb.wtf

Дерсу Узала через торрент pb.wtf

Размер: 1.09 GB | Добавлен: 1 год 1 мес. назад | Торрент скачан:10 раз
Скачать  

30-09-2018 08:14 Дерсу Узала Скачать торрент  

Дерсу Узала
Страна: СССР
Производство: Моснаучфильм

Жанр: драма
Год выпуска: 1961
Продолжительность: 01:21:10

Перевод: Не требуется
Cубтитры: нет
Оригинальная аудиодорожка: русский

Режиссер: Агаси Бабаян

В ролях:
Адольф Шестаков, Касым Жакибаев, Николай Гладков, Лев Лобов, Александр Баранов, Спиридон Григорьев, А. Евстифеев...
Об актёрах подробней

Описание:
Фильм снят по мотивам одноименной книги русского путешественника В.К. Арсеньева, посвященная одному из походов автора по Уссурийскому краю.
Молодой русский учёный Владимир Клавдиевич Арсеньев занимается изучением Уссурийского края Российской империи. В тайге он знакомится с охотником Дерсу Узалой, который становится его проводником и верным другом. Дерсу удивляет Арсеньева прекрасным знанием тайги, умением читать её как открытую книгу и особым отношением к природе.

Источник: DVD5 R5
Качество видео: DVDRip
Формат видео: AVI

Видео: 704х528 (4:3), 25,000 кадров/сек, XviD ~ 1720 kbps avg, 0.185 bit/pixel
Аудио: 48 kHz, Dolby Digital AC3 2.0, 192 kbps

Раздача от:
Общее
Полное имя : Dersu.Uzala.1961.DVDRip_[New-team]_by_AVP_Studio.avi
Формат : AVI
Формат/Информация : Audio Video Interleave
Размер файла : 1,09 Гбайт
Продолжительность : 1 ч. 21 м.
Общий поток : 1922 Кбит/сек
Программа кодирования : VirtualDubMod 1.5.10.3 | www.virtualdub-fr.org || (build 2550/release)
Библиотека кодирования : VirtualDubMod build 2550/release

Видео
Идентификатор : 0
Формат : MPEG-4 Visual
Профиль формата : Advanced Simple@L5
Настройки формата : BVOP1 / Custom Matrix
Параметр BVOP формата : 1
Параметр QPel формата : Нет
Параметр GMC формата : Без точки перехода
Параметр матрицы формата : Выборочная
Идентификатор кодека : XVID
Идентификатор кодека/Подсказка : XviD
Продолжительность : 1 ч. 21 м.
Битрейт : 1720 Кбит/сек
Ширина : 704 пикселя
Высота : 528 пикселей
Соотношение сторон : 4:3
Частота кадров : 25,000 кадров/сек
Цветовое пространство : YUV
Субдискретизация насыщенности : 4:2:0
Битовая глубина : 8 бит
Тип развёртки : Прогрессивная
Метод сжатия : С потерями
Бит/(Пиксели*Кадры) : 0.185
Размер потока : 999 Мбайт (90%)
Библиотека кодирования : XviD 73

Аудио
Идентификатор : 1
Формат : AC-3
Формат/Информация : Audio Coding 3
Коммерческое название : Dolby Digital
Идентификатор кодека : 2000
Продолжительность : 1 ч. 21 м.
Вид битрейта : Постоянный
Битрейт : 192 Кбит/сек
Каналы : 2 канала
Channel layout : L R
Частота : 48,0 КГц
Частота кадров : 31,250 кадров/сек (1536 SPF)
Битовая глубина : 16 бит
Метод сжатия : С потерями
Размер потока : 111 Мбайт (10%)
Выравнивание : Разделение по промежуткам
Продолжительность промежутка : 40 мс. (1,00 видеокадр)
Время предзагрузки промежутка : 500 мс
pb.wtf



Скачать Дерсу Узала через торрент http://picplus.ru/img/1809/30/e2b0f817.png Скачать фильм Дерсу Узала через торрент бесплантно в хорошем качестве Описание:Фильм снят по мотивам одноименной книги русского путешественника В.К. Арсеньева, посвященная одному из походов автора по ... 10 10 3
Info! Золотая раздача, скачанное не засчитывается.
Торрент: Зарегистрирован [2018-09-30 08:14] · скачан: 10 раз
Статус: √ проверено
Размер: 1.09 GB
Как cкачать? Как скачать Дерсу Узала через торрент | qTorrent

% Раздел Тема Автор DL S | L
Кино СССР [ 7.03 GB ] Дерсу Узала [1975 биография BDRip 720p] - KORSAR kisa1980 Скачать
1 | 0
Кино СССР [ 1.09 GB ] Дерсу Узала [1961 СССР DVDRip-AVC от AVP Studio] AVP Studio Скачать
1 | 0
Кино СССР [ 3.44 GB ] Дерсу Узала [1975 BDRip-AVC ExKinoRay] Enigma2010 Скачать
1 | 0


>> Регистрируемся здесь <<






Отзывы и комментарии о схеме читаем и пишем здесь: ---> Отзывы и комментарии о схеме

Новые благодарочки в телеграм довольных пользователей:
скриншот   скриншот   скриншот   скриншот   скриншот
    Дорогой пользователь! Огромная просьба, поблагодарите релизера, оцените раздачу и оставьте свои комментарий, если Вы скачали Дерсу Узала через торрент бесплатно! Внесите свою лепту в развитие PiratBit!
    Комментировать посты могут только пользователи прошедшие не сложную регистрацию
    Показать сообщения:    

    Дерсу Узала через торрент
    Скачать бесплатно Дерсу Узала
    Дерсу Узала скачать торрент
    Дерсу Узала смотреть онлайн
    Cкачать фильм Дерсу Узала бесплатно
    Дерсу Узала скачать торрент в хорошем качестве
    Дерсу Узала смотреть онлайн бесплатно в хорошем качестве


    Вы не можете начинать темы
    Вы не можете отвечать на сообщения
    Вы не можете редактировать свои сообщения
    Вы не можете удалять свои сообщения
    Вы не можете голосовать в опросах
    Вы не можете прикреплять файлы к сообщениям
    Вы можете скачивать файлы