новый адрес пиратбит piratbit
Мега распродажа FORZA HORIZON 4 ULTIMATE+ВСЕ DLC+ОНЛАЙН всего за 499р. 349 руб. (супер цена). Внимание количество ограничено!!!

iTunes

1+1

iTunes

мы

iTunes

1

iTunes

Чернобыль

iTunes

Ральф против интернета

Лицензия

ПШазам

Лицензия

Игра престолов

Лицензия

30
pack

ВАЖНО

!!Акция!!

Alien_RageХит недели

RePack

Resident Evil 21

ИГРА 18+

pack

RePack

Metro:Exodus

!!Акция!!

Alien_Rage

RePack

fifa19

RePack

Assassins Creed: Odyssey

RePack

NEED FOR SPEED™ PAYBACK

3 сезон

9 сезон

Бесстыжие 9 сезон

Все сериалы

все сериалы на PB.wtf

RePack

FAR CRY 5
Ребята, катастрофически не хватает 1900р. для оплаты серверов за Октябрь (всвязи с блокировками трафик упал в 3 раза), 1-2р., выручайте.
  

На ясный огонь (Виталий Кольцов) [1975 г., Военный, Приключения, DVDRip-AVC] pb.wtf

На ясный огонь через торрент pb.wtf

Размер: 1.06 GB | Добавлен: 1 год 1 мес. назад | Торрент скачан:12 раз
Скачать  

30-09-2018 17:14 На ясный огонь Скачать торрент  

На ясный огонь
Год выпуска: 1975
Страна: СССР
Жанр: Военный, Приключения
Продолжительность: 01:23:18
Субтитры: Отсутствуют

Режиссер: Виталий Кольцов

rating

В ролях: Владимир Пицек, Ролан Быков, Маргарита Гладунко, Татьяна Доронина, Лев Дуров, Евгений Евстигнеев, Александр Лазарев, Елена Санаева, Владимир Тихонов, Борис Химичев, Борис Новиков, Петр Глебов, Николай Погодин, Станислав Чекан, Виктор Филиппов, Алексей Бахарь, Александр Лебедев

Описание: По мотивам повести Михаила Зощенко «Возмездие».
Бывшая неграмотная кухарка, а теперь сознательная большевичка и отважная разведчица, выполняя очередное задание командования в глубоком тылу, она восстанавливает связь между симферопольским и ялтинским подпольем...

Качество: DVDRip-AVC
Формат: MKV
Видео кодек: AVC
Аудио кодек: AC3
Видео: AVC, 692x332@732x332 , 25.0fps, 1408 Kbps
Аудио#1: AC3 , 2 ch , 48 kHz , 384 kbps
скриншот   скриншот   скриншот   скриншот  

Общее
Уникальный идентификатор : 183423059673789146571064239887411600961 (0x89FDFF0E4863746FA91E86D785E05E41)
Полное имя : D:На ясный огонь_1975-DVDRip-AVC_KORSAR.mkv
Формат : Matroska
Версия формата : Version 2
Размер файла : 1,06 Гбайт
Продолжительность : 1 ч. 23 м.
Общий поток : 1828 Кбит/сек
Название фильма : На ясный огонь_1975-DVDRip-AVC_KORSAR
Дата кодирования : UTC 2018-09-23 10:38:59
Программа кодирования : mkvmerge v5.8.0 ('No Sleep / Pillow') built on Sep 2 2012 15:37:04
Библиотека кодирования : libebml v1.2.3 + libmatroska v1.3.0

Видео
Идентификатор : 1
Формат : AVC
Формат/Информация : Advanced Video Codec
Профиль формата : High@L4.1
Параметр CABAC формата : Да
Параметр RefFrames формата : 14 кадров
Идентификатор кодека : V_MPEG4/ISO/AVC
Продолжительность : 1 ч. 23 м.
Битрейт : 1408 Кбит/сек
Ширина : 692 пикселя
Высота : 332 пикселя
Соотношение сторон : 2,223
Режим частоты кадров : Постоянный
Частота кадров : 25,000 кадров/сек
Цветовое пространство : YUV
Субдискретизация насыщенности : 4:2:0
Битовая глубина : 8 бит
Тип развёртки : Прогрессивная
Бит/(Пиксели*Кадры) : 0.245
Размер потока : 839 Мбайт (77%)
Библиотека кодирования : x264 core 152 r2851kMod ba24899
Настройки программы : cabac=1 / ref=14 / deblock=1:-2:-1 / analyse=0x3:0x133 / me=umh / subme=10 / psy=1 / fade_compensate=0.00 / psy_rd=1.05:0.10 / mixed_ref=1 / me_range=40 / chroma_me=1 / trellis=2 / 8x8dct=1 / cqm=0 / deadzone=21,11 / fast_pskip=1 / chroma_qp_offset=-3 / threads=10 / lookahead_threads=1 / sliced_threads=0 / nr=0 / decimate=1 / interlaced=0 / bluray_compat=0 / constrained_intra=0 / bframes=9 / b_pyramid=2 / b_adapt=2 / b_bias=0 / direct=1 / weightb=1 / open_gop=0 / weightp=2 / keyint=250 / keyint_min=25 / scenecut=40 / intra_refresh=0 / rc=crf / mbtree=0 / crf=18.0000 / qcomp=0.63 / qpmin=0 / qpmax=39 / qpstep=4 / ip_ratio=1.40 / pb_ratio=1.30 / aq=1:0.90
Язык : English
Default : Да
Forced : Нет
Цветовой диапазон : Limited
Основные цвета : BT.601 PAL
Характеристики трансфера : BT.470 System B, BT.470 System G
Коэффициенты матрицы : BT.601

Аудио
Идентификатор : 2
Формат : AC-3
Формат/Информация : Audio Coding 3
Параметр Endianness формата : Big
Идентификатор кодека : A_AC3
Продолжительность : 1 ч. 23 м.
Вид битрейта : Постоянный
Битрейт : 384 Кбит/сек
Каналы : 2 канала
Расположение каналов : Front: L R
Частота : 48,0 КГц
Частота кадров : 31,250 кадров/сек (1536 SPF)
Битовая глубина : 16 бит
Метод сжатия : С потерями
Размер потока : 229 Мбайт (21%)
Язык : Russian
Default : Да
Forced : Нет

pb.wtf



Скачать На ясный огонь через торрент http://pic1.kartinco.top/images/11/ymoo6.jpg Скачать фильм На ясный огонь через торрент бесплантно в хорошем качестве Описание: По мотивам повести Михаила Зощенко «Возмездие».Бывшая неграмотная кухарка, а теперь сознательная большевичка и отважная ... 10 10 1
Торрент: Зарегистрирован [2018-09-30 17:14] · скачан: 12 раз
Статус: √ проверено
Размер: 1.06 GB
Как cкачать? Как скачать На ясный огонь через торрент | qTorrent


>> Регистрируемся здесь <<






Отзывы и комментарии о схеме читаем и пишем здесь: ---> Отзывы и комментарии о схеме

Новые благодарочки в телеграм довольных пользователей:
скриншот   скриншот   скриншот   скриншот   скриншот
    Дорогой пользователь! Огромная просьба, поблагодарите релизера, оцените раздачу и оставьте свои комментарий, если Вы скачали На ясный огонь через торрент бесплатно! Внесите свою лепту в развитие PiratBit!
    Комментировать посты могут только пользователи прошедшие не сложную регистрацию
    Показать сообщения:    

    На ясный огонь через торрент
    Скачать бесплатно На ясный огонь
    На ясный огонь скачать торрент
    На ясный огонь смотреть онлайн
    Cкачать фильм На ясный огонь бесплатно
    На ясный огонь скачать торрент в хорошем качестве
    На ясный огонь смотреть онлайн бесплатно в хорошем качестве


    Вы не можете начинать темы
    Вы не можете отвечать на сообщения
    Вы не можете редактировать свои сообщения
    Вы не можете удалять свои сообщения
    Вы не можете голосовать в опросах
    Вы не можете прикреплять файлы к сообщениям
    Вы можете скачивать файлы