Anonymous, добрый день, присоединяйтесь к нам в Telegram!, здесь всегда актуальный адрес сайта, оперативная поддержка и многое другое!

>

5.6

iTunes

7.4

iTunes

5.7

MVO

1

7.7

1 сезон

6.8

iTunes

7.3

1 сезон

13

6.7

1 сезон

8.3

RePack

30

ULTIMATE

pack

9.9

Лицензия

ВАЖНО

ИГРА 18+

pack

7.3

RePack

MK11

7.7

RePack

jed

7.8

RePack

fifa19

8.5

RePack

RDR2

RePack

NEED FOR SPEED™ PAYBACK

4 сезон

9 сезон

Бесстыжие 9 сезон

Все сериалы

все сериалы на PB.wtf

RePack

FAR CRY 5

Anonymous, добрый день, мы катастрофически не успеваем собрать деньги на оплату серверов, помогите нам пожалуйста 5,10,15р., для нас важна любая помощь . В качестве благодарности мы отключим Вам всю рекламу на сайте (укажите свой ник в строку Ваше имя)!

×
  
Magnet ссылка

Конная полиция / Сезон: 1 / Серии: 1-16 из 16 (Артём Лемперт, Павел Орешин) [2018, комедия, WEB-DLRip] pb.wtf

Конная полиция через торрент pb.wtf

Размер: 4.51 GB | Добавлен: 2 года 11 мес. назад | Торрент скачан:150 раз
Смотреть онлайн Конная полиция | Скачать    Ребята, помогите собрать деньги на оплату серверов!!!

30-09-2018 22:07 Конная полиция Скачать торрент  

Конная полиция Год выпуска: 2018
Страна: Россия
Жанр: комедия
Продолжительность: ~ 00:25:00
Перевод: Не требуется
Субтитры: отсутствуют

Режиссер: Артём Лемперт, Павел Орешин



В ролях:

Артур Смольянинов, Наталия Медведева (III), Стася Милославская, Алексей Симонов, Борис Дергачев, Артём Гайдуков, Артём Костюнев, Юрий Ицков, Александр Тютрюмов, Анна Галинова

Описание:

Его герой, дерзкий и самоуверенный полицейский, берет взятки, крышует подпольное казино, где и спускает все свои деньги, а потом в нетрезвом виде разъезжает по городу. Во время одной из таких поездок он совершает серьезное правонарушение и в качестве наказания получает распределение в полк конной полиции.

Качество: WEB-DLRip
Формат: AVI

Видео: XviD, 1650 Кбит/с, 720x400
Аудио: AC3, 2 ch, 192 Кбит/с
скриншот   скриншот   скриншот   скриншот   скриншот   скриншот   скриншот  
скриншот  

Общее
Полное имя : D:\Konnaya.politsiya.2018.WEB-DLRip.25Kuzmich\Konnaya.politsiya.e01.WEB-DLRip.25Kuzmich.avi
Формат : AVI
Формат/Информация : Audio Video Interleave
Размер файла : 283 Мбайт
Продолжительность : 21 м. 24 с.
Общий поток : 1852 Кбит/сек
Программа кодирования : VirtualDubMod 1.5.10.3 | www.virtualdub-fr.org || (build 2550/release)
Библиотека кодирования : VirtualDubMod build 2550/release

Видео
Идентификатор : 0
Формат : MPEG-4 Visual
Профиль формата : Advanced Simple@L5
Параметр BVOP формата : 1
Параметр QPel формата : Нет
Параметр GMC формата : Без точки перехода
Параметр матрицы формата : Default (MPEG)
Идентификатор кодека : XVID
Идентификатор кодека/Подсказка : XviD
Продолжительность : 21 м. 24 с.
Битрейт : 1650 Кбит/сек
Ширина : 720 пикселей
Высота : 400 пикселей
Соотношение сторон : 16:9
Частота кадров : 25,000 кадров/сек
Цветовое пространство : YUV
Субдискретизация насыщенности : 4:2:0
Битовая глубина : 8 бит
Тип развёртки : Прогрессивная
Метод сжатия : С потерями
Бит/(Пиксели*Кадры) : 0.229
Размер потока : 253 Мбайт (89%)
Библиотека кодирования : XviD 1.2.1 (UTC 2008-12-04)

Аудио
Идентификатор : 1
Формат : AC-3
Формат/Информация : Audio Coding 3
Расширение режима : CM (complete main)
Параметр Endianness формата : Big
Идентификатор кодека : 2000
Продолжительность : 21 м. 24 с.
Вид битрейта : Постоянный
Битрейт : 192 Кбит/сек
Каналы : 2 канала
Расположение каналов : Front: L R
Частота : 48,0 КГц
Частота кадров : 31,250 кадров/сек (1536 spf)
Метод сжатия : С потерями
Размер потока : 29,4 Мбайт (10%)
Выравнивание : Разделение по промежуткам
Продолжительность промежутка : 40 мс. (1,00 видеокадр)
Время предзагрузки промежутка : 500 мс.

Внимание! Раздача ведётся путём добавления новых серий; при каждом добавлении создаётся новый торрент. Чтобы начать докачку новой серии, пользователям необходимо сделать следующее:
Остановить скачивание.
Удалить старый торрент у себя из клиента (старые серии удалять не надо).
Скачать новый торрент и запустить его у себя в клиенте вместо старого, при этом указать клиенту путь в старую папку куда и должно происходить скачивание новых серий.

Ваш клиент при этом должен произвести хеширование (проверку) старой папки (если не производит сам - помогите ему сделать это), и будет докачивать только те серии которых у вас ещё нет. Старые серии при этом не удаляются, а продолжают раздаваться!
Eсли вы уже удалили старые серии, то предотвратить повторную закачку старых серий можно, отжав галочку в соответсвующих местах при запуске нового торрента. По возможности, желательно не удалять старые серии как можно дольше чтобы релизёр не столько продолжал раздавать старые серии, а смог сконцентрироваться на новых.
pb.wtf



Скачать Конная полиция через торрент http://img11.lostpic.net/2018/10/02/09e2733988129f9bec6ece396ff07215.jpg Скачать, смотреть онлайн Конная полиция бесплантно в хорошем качестве Описание: Его герой, дерзкий и самоуверенный полицейский, берет взятки, крышует подпольное казино, где и спускает все свои деньги, а потом ... 10 10 19
Info! Золотая раздача, скачанное не засчитывается.
Торрент: Зарегистрирован [2018-10-17 22:40] · скачан: 150 раз
Статус: √ проверено
Размер: 4.51 GB
Как cкачать? Как скачать Конная полиция через торрент | UTorrent

% Раздел Тема Автор DL S | L
TNT serials [ 4.37 GB ] Конная полиция / Сезон: 1 / Серии: 1-16 из 16 [2018 WEB-DLRip-AVC] bober100 Скачать
1 | 0
TNT serials [ 6.73 GB ] Конная полиция / Сезон: 1 / Серии: 1-16 из 16 [2018 WEB-DL 720p] bober100 Скачать
2 | 0
TNT serials [ 12.52 GB ] Конная полиция / Сезон: 1 / Серии: 1-16 из 16 [2018 WEB-DL 1080p] bober100 Скачать
1 | 0


Последний раз редактировалось: bober100 (2018-10-08 01:31), всего редактировалось 3 раз(а)

28-11-2019 20:33  

Отключить всю рекламу на сайте

05-10-2018 09:38 Конная полиция Скачать торрент  

норм сериал, немного глупый но прикольный, но есть одно но...если бы я смотрел его по одной серии в день то врят ли бы он мне понравился.pb.wtf



    Дорогой пользователь! Огромная просьба, поблагодарите релизера, оцените раздачу и оставьте свои комментарий, если Вы скачали Конная полиция через торрент бесплатно!
    Комментировать посты могут только пользователи прошедшие не сложную регистрацию
    Показать сообщения:    

    Конная полиция через торрент
    Скачать бесплатно Конная полиция
    Конная полиция скачать торрент
    Конная полиция смотреть онлайн
    Cкачать фильм Конная полиция бесплатно
    Конная полиция скачать торрент в хорошем качестве
    Конная полиция смотреть онлайн бесплатно в хорошем качестве


    Вы не можете начинать темы
    Вы не можете отвечать на сообщения
    Вы не можете редактировать свои сообщения
    Вы не можете удалять свои сообщения
    Вы не можете голосовать в опросах
    Вы не можете прикреплять файлы к сообщениям
    Вы можете скачивать файлы