Ссылка на приватное зеркало нашего сайта всего за 1$. Внимание количество ограничено!!!

2 сезон

iTunes

1 сезон

1

iTunes

iTunes

iTunes

1 сезон

RePack

30

ИГРА 18+

pack

ВАЖНО

!!Акция!!

Alien_RageХит недели

RePack

MK11
pack

Забери бонус

RePack

jed

!!Акция!!

Alien_Rage

RePack

fifa19

RePack

Assassins Creed: Odyssey

RePack

NEED FOR SPEED™ PAYBACK

4 сезон

9 сезон

Бесстыжие 9 сезон

Все сериалы

все сериалы на PB.wtf

RePack

FAR CRY 5
  

Фитнес / Сезон: 1 / Серии: 1-20 из 20 (Антон Маслов) [2018, комедия, WEB-DL 1080p] pb.wtf

Фитнес через торрент pb.wtf

Раздают: 2 [ 193 KB/s ]
Размер: 17.45 GB | Добавлен: 1 год 11 мес. назад | Торрент скачан:210 раз
Скачать  

30-09-2018 22:20 Фитнес Скачать торрент  

ФитнесГод выпуска: 2018
Страна: Россия
Жанр: комедия
Продолжительность: ~ 00:26:00
Субтитры: отсутствуют

Режиссер: Антон Маслов



В ролях:

Софья Зайка, Михаил Трухин, Татьяна Храмова (II), Роман Курцын, Алексей Демидов, Борис Дергачев, Марианна Шульц, Ольга Баранова, Анна Лауренская, Татьяна Сомова, Мария Малиновская, Александр Семчев, Данила Якушев, Евгений Михеев, Дмитрий Чеботарёв, Елизавета Мартинес, Ирина Бякова, Андрей Пынзару

Описание:

«Быстрее, выше, сильнее»… В мире Аси такому девизу не место. Так же, как и комплексам из-за лишнего веса. Тем более, есть дела поважнее – подготовка к свадьбе в самом разгаре. Беспечный мир Аси рушится в одну секунду: девушка узнает, что любимого давно не устраивает ее фигура. А лучшие подруги не стесняются злословить о пышных формах за ее спиной. Восстанавливать веру в себя Ася отправляется в спортклуб. Вот только тренировки и программа по снижению веса оказываются не по карману начинающей спортсменке. Выход один – стать сотрудником фитнеса и заниматься бесплатно. Так у Аси появляется новая работа, знакомства и, главное, стимул доказать подругам, бывшему и всему миру, что «невозможное возможно».

Качество: WEB-DL 1080p
Формат: MKV

Видео: MPEG-4 AVC, ~ 6501 Кбит/с, 1920x1080
Аудио: AC3, 2 ch, 192 Кбит/с
скриншот  скриншот  скриншот  

General
Unique ID : 175761974084740750662854455235704188314 (0x843A865FADC13AD7AE5C319299F6ED9A)
Complete name : D:\Fitnes.2018.WEB-DL.(1080p).Getty\Fitnes.e01.2018.WEB-DL.(1080p).Getty.mkv
Format : Matroska
Format version : Version 4 / Version 2
File size : 1.23 GiB
Duration : 26 min 14 s
Overall bit rate : 6 695 kb/s
Movie name : Fitnes.e01.2018.WEB-DL.(1080p).Getty
Encoded date : UTC 2018-09-30 21:06:41
Writing application : mkvmerge v7.8.0 ('River Man') 32bit built on Mar 27 2015 16:18:02
Writing library : libebml v1.3.1 + libmatroska v1.4.2

Video
ID : 1
Format : AVC
Format/Info : Advanced Video Codec
Format profile : High@L4
Format settings : CABAC / 4 Ref Frames
Format settings, CABAC : Yes
Format settings, ReFrames : 4 frames
Format settings, GOP : M=2, N=15
Codec ID : V_MPEG4/ISO/AVC
Duration : 26 min 14 s
Bit rate : 6 501 kb/s
Width : 1 920 pixels
Height : 1 080 pixels
Display aspect ratio : 16:9
Frame rate mode : Constant
Frame rate : 23.976 (24000/1001) FPS
Color space : YUV
Chroma subsampling : 4:2:0
Bit depth : 8 bits
Scan type : Progressive
Bits/(Pixel*Frame) : 0.131
Stream size : 1.19 GiB (97%)
Default : Yes
Forced : No

Audio
ID : 2
Format : AC-3
Format/Info : Audio Coding 3
Codec ID : A_AC3
Duration : 26 min 14 s
Bit rate mode : Constant
Bit rate : 192 kb/s
Channel(s) : 2 channels
Channel positions : Front: L R
Sampling rate : 48.0 kHz
Frame rate : 31.250 FPS (1536 SPF)
Bit depth : 16 bits
Compression mode : Lossy
Stream size : 36.0 MiB (3%)
Service kind : Complete Main
Default : Yes
Forced : No

Внимание! Раздача ведётся путём добавления новых серий; при каждом добавлении создаётся новый торрент. Чтобы начать докачку новой серии, пользователям необходимо сделать следующее:
Остановить скачивание.
Удалить старый торрент у себя из клиента (старые серии удалять не надо).
Скачать новый торрент и запустить его у себя в клиенте вместо старого, при этом указать клиенту путь в старую папку куда и должно происходить скачивание новых серий.

Ваш клиент при этом должен произвести хеширование (проверку) старой папки (если не производит сам - помогите ему сделать это), и будет докачивать только те серии которых у вас ещё нет. Старые серии при этом не удаляются, а продолжают раздаваться!
Eсли вы уже удалили старые серии, то предотвратить повторную закачку старых серий можно, отжав галочку в соответсвующих местах при запуске нового торрента. По возможности, желательно не удалять старые серии как можно дольше чтобы релизёр не столько продолжал раздавать старые серии, а смог сконцентрироваться на новых.
pb.wtf



Скачать Фитнес через торрент http://img11.lostpic.net/2018/10/01/ed2bd621a745cdc8704ab5499dc91ec9.jpg Скачать фильм Фитнес через торрент бесплантно в хорошем качестве Описание: «Быстрее, выше, сильнее»… В мире Аси такому девизу не место. Так же, как и комплексам из-за лишнего веса. Тем более, есть дела ... 9.3 10 13
Info! Золотая раздача, скачанное не засчитывается.
Торрент: Зарегистрирован [2018-11-09 04:31] · скачан: 210 раз
Статус: √ проверено
Размер: 17.45 GB
Как cкачать? Как скачать Фитнес через торрент | qTorrent

% Раздел Тема Автор DL S | L
Наши сериалы [ 10.16 GB ] Фитнес / Королева фитнеса / Сезон: 4 / Серии: 1-20 из 20 [2020 WEBRip 720p] bober100 Скачать
2 | 0
Наши сериалы [ 5.8 GB ] Фитнес / Королева фитнеса / Сезон: 4 / Серии: 1-20 из 20 [2020 WEBRip] bober100 Скачать
4 | 1
Наши сериалы [ 21.25 GB ] Фитнес / Королева фитнеса / Сезон: 4 / Серии: 1-20 из 20 [2020 WEBRip 1080p] bober100 Скачать
5 | 0
Наши сериалы [ 5.77 GB ] Фитнес / Королева фитнеса / Сезон: 4 / Серии: 1-20 из 20 [2020 WEBRip-AVC] bober100 Скачать
2 | 0
TNT serials [ 15.37 GB ] Фитнес / Королева фитнеса / Сезон: 3 / Серии: 1-20 из 20 [2020 WEB-DL 1080p] bober100 Скачать
3 | 0
TNT serials [ 9.97 GB ] Фитнес / Королева фитнеса / Сезон: 3 / Серии: 1-20 из 20 [2020 WEB-DL 720p] bober100 Скачать
1 | 0
TNT serials [ 5.81 GB ] Фитнес / Королева фитнеса / Сезон: 3 / Серии: 1-20 из 20 [2020 WEB-DLRip-AVC] bober100 Скачать
1 | 0

28-11-2019 20:33  

Отключить всю рекламу на сайте

    Дорогой пользователь! Огромная просьба, поблагодарите релизера, оцените раздачу и оставьте свои комментарий, если Вы скачали Фитнес через торрент бесплатно! Внесите свою лепту в развитие PiratBit!
    Комментировать посты могут только пользователи прошедшие не сложную регистрацию
    Показать сообщения:    

    Фитнес через торрент
    Скачать бесплатно Фитнес
    Фитнес скачать торрент
    Фитнес смотреть онлайн
    Cкачать фильм Фитнес бесплатно
    Фитнес скачать торрент в хорошем качестве
    Фитнес смотреть онлайн бесплатно в хорошем качестве


    Вы не можете начинать темы
    Вы не можете отвечать на сообщения
    Вы не можете редактировать свои сообщения
    Вы не можете удалять свои сообщения
    Вы не можете голосовать в опросах
    Вы не можете прикреплять файлы к сообщениям
    Вы можете скачивать файлы