Ссылка на приватное зеркало нашего сайта всего за 1$. Внимание количество ограничено!!!

2 сезон

iTunes

1 сезон

1

iTunes

iTunes

iTunes

1 сезон

RePack

30

ИГРА 18+

pack

ВАЖНО

!!Акция!!

Alien_RageХит недели

RePack

MK11
pack

Забери бонус

RePack

jed

!!Акция!!

Alien_Rage

RePack

fifa19

RePack

Assassins Creed: Odyssey

RePack

NEED FOR SPEED™ PAYBACK

4 сезон

9 сезон

Бесстыжие 9 сезон

Все сериалы

все сериалы на PB.wtf

RePack

FAR CRY 5
  

Одна на двоих / Серии: 1-4 из 4 (Владимир Янощук) [2018, Мелодрама, SATRip-AVC] pb.wtf

Одна на двоих через торрент pb.wtf

Раздают: 1 [ 0 KB/s ]
Размер: 2.26 GB | Добавлен: 2 года назад | Торрент скачан:78 раз
Скачать  

30-09-2018 22:49 Одна на двоих Скачать торрент  

Одна на двоих
Год выпуска: 2018
Страна: Украина
Жанр: Мелодрама
Продолжительность: ~ 00:49:00
Перевод: Не требуется
Субтитры: Украинские

Режиссер: Владимир Янощук

В ролях:

Алина Сергеева, Александр Ратников, Дмитрий Сова, Андрей Исаенко, Ксения Баша-Довженко, Владислав Демиденко, Анна Расстальная, Владимир Миняйло, Олег Щербина (II), Кристина Мельниченко, Марина Куклина

Описание:

Оля и Петя – ровесники и соседи с детства: вместе росли, вместе пережили потерю близких в одной аварии (Олиной мамы и Петиного отца), вместе попали в детдом. Детская дружба со временем перерастает в любовь, и к своим восемнадцати молодые люди уверены, что и дальше пойдут по жизни вместе, готовятся к свадьбе. Но в их планы вмешивается Илья Горелов, сын влиятельного отца, привыкший получать то, что хочет, по первому требованию. На его ухаживания Оля отвечает отказом. И тогда Илья делает все так, чтобы убрать с дороги соперника, ведь одна на двоих никак не делится. В итоге, после череды событий, подстроенных Ильей, Петр попадает за решетку, а Оля вынуждена принять предложение Горелова и стать его женой. По прошествии восемнадцати лет Оля по-прежнему в статусе жены Горелова, живет в достатке, занимается любимой работой. Но ни Оля, ни выросший бунтарем сын Сережа, ни Илья не чувствуют себя счастливыми. Всё изменится, когда «на орбите» Оли вновь появится Петр. Случайная встреча перевернет жизнь всех участников истории. И заставит отвечать на трудные вопросы. Что важнее – чувство долга или любовь, некогда преданная? Надо ли мстить за прошлые обиды или достаточно попытки восстановить справедливость? Оле вновь предстоит сделать самый важный в жизни выбор.

Качество: SATRip-AVC
Формат: MKV

Видео: MPEG-4 AVC, ~ 1500 Кбит/с, 720x400, 25 кадр/с
Аудио: AC3, 2 ch, 192 Кбит/с
скриншот  скриншот  скриншот  скриншот  

Общее
Уникальный идентификатор : 215065166204912642345415475975430681131 (0xA1CC0B5B1A465880B5AD4C7D9B45322B)
Полное имя : D:\Одна на двоих.(2018).SATRip.(AVC).Files-x\01.Одна на двоих.(2018).SATRip.(AVC).by.Серый1779.Files-x.mkv
Формат : Matroska
Версия формата : Version 2
Размер файла : 604 Мбайт
Продолжительность : 49 м. 50 с.
Общий поток : 1694 Кбит/сек
Дата кодирования : UTC 2018-09-30 16:29:05
Программа кодирования : mkvmerge v7.8.0 ('River Man') 32bit built on Apr 3 2015 12:11:22
Библиотека кодирования : libebml v1.3.1 + libmatroska v1.4.2

Видео
Идентификатор : 1
Формат : AVC
Формат/Информация : Advanced Video Codec
Профиль формата : High@L4.1
Параметр CABAC формата : Да
Параметр RefFrames формата : 9 кадров
Идентификатор кодека : V_MPEG4/ISO/AVC
Продолжительность : 49 м. 50 с.
Битрейт : 1500 Кбит/сек
Ширина : 720 пикселей
Высота : 400 пикселей
Соотношение сторон : 16:9
Режим частоты кадров : Постоянный
Частота кадров : 25,000 кадров/сек
Цветовое пространство : YUV
Субдискретизация насыщенности : 4:2:0
Битовая глубина : 8 бит
Тип развёртки : Прогрессивная
Бит/(Пиксели*Кадры) : 0.208
Размер потока : 523 Мбайт (87%)
Библиотека кодирования : x264 core 146 r2538 121396c
Настройки программы : cabac=1 / ref=9 / deblock=1:-3:-3 / analyse=0x3:0x133 / me=umh / subme=9 / psy=1 / psy_rd=1.00:0.15 / mixed_ref=1 / me_range=32 / chroma_me=1 / trellis=2 / 8x8dct=1 / cqm=0 / deadzone=21,11 / fast_pskip=0 / chroma_qp_offset=-3 / threads=18 / lookahead_threads=3 / sliced_threads=0 / nr=0 / decimate=1 / interlaced=0 / bluray_compat=0 / constrained_intra=0 / bframes=9 / b_pyramid=2 / b_adapt=2 / b_bias=0 / direct=1 / weightb=1 / open_gop=0 / weightp=2 / keyint=250 / keyint_min=25 / scenecut=40 / intra_refresh=0 / rc=2pass / mbtree=0 / bitrate=1500 / ratetol=1.0 / qcomp=0.60 / qpmin=0 / qpmax=69 / qpstep=4 / cplxblur=20.0 / qblur=0.5 / ip_ratio=1.40 / pb_ratio=1.30 / aq=2:1.00
Default : Да
Forced : Нет
Цветовой диапазон : Limited
Основные цвета : BT.601 PAL
Характеристики трансфера : BT.470 System B, BT.470 System G
Коэффициенты матрицы : BT.601

Аудио
Идентификатор : 2
Формат : AC-3
Формат/Информация : Audio Coding 3
Расширение режима : CM (complete main)
Параметр Endianness формата : Big
Идентификатор кодека : A_AC3
Продолжительность : 49 м. 50 с.
Вид битрейта : Постоянный
Битрейт : 192 Кбит/сек
Каналы : 2 канала
Расположение каналов : Front: L R
Частота : 48,0 КГц
Частота кадров : 31,250 кадров/сек (1536 spf)
Метод сжатия : С потерями
Размер потока : 68,5 Мбайт (11%)
Default : Да
Forced : Нет

pb.wtf



Скачать Одна на двоих через торрент https://i89.fastpic.ru/big/2018/0930/98/7f45548015972b33eb61947af535ba98.jpg Скачать фильм Одна на двоих через торрент бесплантно в хорошем качестве Описание: Оля и Петя – ровесники и соседи с детства: вместе росли, вместе пережили потерю близких в одной аварии (Олиной мамы и Петиного ... 9.3 10 4
Торрент: Зарегистрирован [2018-09-30 22:49] · скачан: 78 раз
Статус: √ проверено
Размер: 2.26 GB
Как cкачать? Как скачать Одна на двоих через торрент | qTorrent

% Раздел Тема Автор DL S | L
Наши сериалы [ 2.33 GB ] Одна ложь на двоих / Серии: 1-4 из 4 [2018 SATRip-AVC] aleksan55 Скачать
1 | 0
Наши сериалы [ 6.41 GB ] Одна ложь на двоих / Серии: 1-4 из 4 [2018 Мело WEB-DL 1080p] bober100 Скачать
1 | 0
Наши сериалы [ 2.39 GB ] Одна ложь на двоих / Серия 1-4 из 4 / [2018 Мело SATRip] oleg8 Скачать
1 | 0

28-11-2019 20:33  

Отключить всю рекламу на сайте

    Дорогой пользователь! Огромная просьба, поблагодарите релизера, оцените раздачу и оставьте свои комментарий, если Вы скачали Одна на двоих через торрент бесплатно! Внесите свою лепту в развитие PiratBit!
    Комментировать посты могут только пользователи прошедшие не сложную регистрацию
    Показать сообщения:    

    Одна на двоих через торрент
    Скачать бесплатно Одна на двоих
    Одна на двоих скачать торрент
    Одна на двоих смотреть онлайн
    Cкачать фильм Одна на двоих бесплатно
    Одна на двоих скачать торрент в хорошем качестве
    Одна на двоих смотреть онлайн бесплатно в хорошем качестве


    Вы не можете начинать темы
    Вы не можете отвечать на сообщения
    Вы не можете редактировать свои сообщения
    Вы не можете удалять свои сообщения
    Вы не можете голосовать в опросах
    Вы не можете прикреплять файлы к сообщениям
    Вы можете скачивать файлы