Ссылка на приватное зеркало нашего сайта всего за 1$. Внимание количество ограничено!!!

2 сезон

iTunes

1 сезон

1

2 сезон

2 сезон

iTunes

1 сезон

RePack

30

Новинка

ВАЖНО

ИГРА 18+

pack

RePack

MK11
pack

Забери бонус

RePack

jed

!!Акция!!

Alien_Rage

RePack

fifa19

RePack

Assassins Creed: Odyssey

RePack

NEED FOR SPEED™ PAYBACK

4 сезон

9 сезон

Бесстыжие 9 сезон

Все сериалы

все сериалы на PB.wtf

RePack

FAR CRY 5
  

Маньяк / Maniac / Сезон: 1 / Серии: 1-10 из 10 (Кэри Фукунага) [2018, Фантастика, драма, комедия, WEBRip 2160p] 2xMVO [LostFilm, BTi Studios & Невафильм] pb.wtf

Маньяк через торрент pb.wtf

Размер: 84.44 GB | Добавлен: 2 года 1 мес. назад | Торрент скачан:20 раз
Скачать  

01-10-2018 09:47 Маньяк Скачать торрент  

Маньяк / ManiacГод выпуска: 2018
Страна: США
Жанр: Фантастика, драма, комедия
Продолжительность: ~ 00:41:00
Перевод:

Профессиональный многоголосый | LostFilm
Профессиональный многоголосый | BTi Studios & Невафильм

Субтитры: Русские (Forced, Full), английские (Full, SDH)

Режиссер: Кэри Фукунага

rating

В ролях:

Джона Хилл, Билли Магнуссен, Соноя Мидзуно, Эмма Стоун, Седжал Шах, Аралин Андерсон, Александра Каррен, Кристиан ДеМараис, Джулия Гарнер, Рому Канда

Описание:

Энни Лендсберг и Оуэн Милгрим — два незнакомца, согласившиеся принять участие в испытании нового фармацевтического средства. У каждого на это свои причины. Энни пытается справиться с разрушенными отношениями, а Оуэн переживает из-за шизофрении, которую ему поставили еще в детстве. Новое лекарство доктора Мантлрэя обещает исправить любое заболевание, вплоть до разбитого сердца. Только вот почему-то никто не хочет говорить о побочных эффектах.

Качество: WEBRip 2160p
Формат: MKV

Видео: MPEG-4 AVC, High@L5.1, 8 bits, ~ 37.5 Mбит/с Mбит/с, 3840x2024, 23.976 кадр/с
Аудио#1: Русский (AC3, 2 ch, 384 Кбит/с) / Профессиональный многоголосый (LostFilm)
Аудио#2: Русский (AC3, 6 ch, 640 Кбит/с) / Профессиональный многоголосый (BTi Studios & Невафильм)
Аудио#3: Английский (E-AC3, 6 ch, 640 Кбит/с)
скриншот  скриншот  скриншот  скриншот  скриншот  

General
Unique ID : 215467679993361069985626594988505508305 (0xA21990D15DF027E8096C05BC3DCD29D1)
Complete name : D:uTorrentManiac.2018.WEBRip.2160p.S01.MediaClubManiac.2018.S01E01.2160p.WEBRip.MediaClub.mkv
Format : Matroska
Format version : Version 4
File size : 11.1 GiB
Duration : 41 min 22 s
Overall bit rate : 38.6 Mb/s
Encoded date : UTC 2018-09-25 08:05:25
Writing application : mkvmerge v25.0.0 ('Prog Noir') 64-bit
Writing library : libebml v1.3.6 + libmatroska v1.4.9
Cover : Yes
Attachments : cover.jpg

Video
ID : 1
Format : AVC
Format/Info : Advanced Video Codec
Format profile : High@L5.1
Format settings : CABAC / 6 Ref Frames
Format settings, CABAC : Yes
Format settings, RefFrames : 6 frames
Codec ID : V_MPEG4/ISO/AVC
Duration : 40 min 40 s
Bit rate : 37.5 Mb/s
Width : 3 840 pixels
Height : 2 024 pixels
Display aspect ratio : 1.897
Frame rate mode : Constant
Frame rate : 23.976 (24000/1001) FPS
Color space : YUV
Chroma subsampling : 4:2:0
Bit depth : 8 bits
Scan type : Progressive
Bits/(Pixel*Frame) : 0.201
Stream size : 10.7 GiB (96%)
Title : WEBRip.2160p by Silverok
Writing library : x264 core 157 r2932+2 (master: 303c484 / tmod: 1b88d0a) [X86_64]
Encoding settings : cabac=1 / ref=6 / deblock=1:-3:-3 / analyse=0x3:0x133 / me=umh / subme=11 / psy=1 / psy_rd=1.05:0.15 / mixed_ref=1 / me_range=48 / chroma_me=1 / trellis=2 / 8x8dct=1 / cqm=0 / deadzone=6,6 / fast_pskip=0 / chroma_qp_offset=-3 / threads=54 / lookahead_threads=13 / sliced_threads=0 / nr=0 / decimate=0 / interlaced=0 / bluray_compat=0 / constrained_intra=0 / bframes=10 / b_pyramid=2 / b_adapt=2 / b_bias=0 / direct=3 / weightb=1 / open_gop=0 / weightp=2 / keyint=250 / keyint_min=23 / scenecut=40 / intra_refresh=0 / rc=crf / mbtree=0 / crf=21.0 / qcomp=0.75 / qpmin=0 / qpmax=69 / qpstep=4 / ip_ratio=1.25 / pb_ratio=1.20 / aq=3:0.75
Default : Yes
Forced : No

Audio #1
ID : 2
Format : AC-3
Format/Info : Audio Coding 3
Commercial name : Dolby Digital
Codec ID : A_AC3
Duration : 41 min 22 s
Bit rate mode : Constant
Bit rate : 384 kb/s
Channel(s) : 2 channels
Channel layout : L R
Sampling rate : 48.0 kHz
Frame rate : 31.250 FPS (1536 SPF)
Bit depth : 16 bits
Compression mode : Lossy
Stream size : 114 MiB (1%)
Title : Профессиональный многоголосый (LostFilm)
Language : Russian
Service kind : Complete Main
Default : Yes
Forced : No

Audio #2
ID : 3
Format : AC-3
Format/Info : Audio Coding 3
Commercial name : Dolby Digital
Codec ID : A_AC3
Duration : 41 min 12 s
Bit rate mode : Constant
Bit rate : 640 kb/s
Channel(s) : 6 channels
Channel layout : L R C LFE Ls Rs
Sampling rate : 48.0 kHz
Frame rate : 31.250 FPS (1536 SPF)
Bit depth : 16 bits
Compression mode : Lossy
Stream size : 189 MiB (2%)
Title : Профессиональный многоголосый (BTi Studios & Невафильм)
Language : Russian
Service kind : Complete Main
Default : No
Forced : No

Audio #3
ID : 4
Format : E-AC-3
Format/Info : Enhanced AC-3
Commercial name : Dolby Digital Plus
Codec ID : A_EAC3
Duration : 40 min 40 s
Bit rate mode : Constant
Bit rate : 640 kb/s
Channel(s) : 6 channels
Channel layout : L R C LFE Ls Rs
Sampling rate : 48.0 kHz
Frame rate : 31.250 FPS (1536 SPF)
Compression mode : Lossy
Stream size : 186 MiB (2%)
Language : English
Service kind : Complete Main
Default : No
Forced : No

Text #1
ID : 5
Format : UTF-8
Codec ID : S_TEXT/UTF8
Codec ID/Info : UTF-8 Plain Text
Duration : 24 min 14 s
Bit rate : 1 b/s
Count of elements : 7
Stream size : 346 Bytes (0%)
Title : Forced
Language : Russian
Default : Yes
Forced : No

Text #2
ID : 6
Format : UTF-8
Codec ID : S_TEXT/UTF8
Codec ID/Info : UTF-8 Plain Text
Duration : 37 min 4 s
Bit rate : 133 b/s
Count of elements : 593
Stream size : 36.2 KiB (0%)
Title : Full
Language : Russian
Default : No
Forced : No

Text #3
ID : 7
Format : UTF-8
Codec ID : S_TEXT/UTF8
Codec ID/Info : UTF-8 Plain Text
Duration : 40 min 27 s
Bit rate : 67 b/s
Count of elements : 597
Stream size : 20.1 KiB (0%)
Title : Full
Language : English
Default : No
Forced : No

Text #4
ID : 8
Format : UTF-8
Codec ID : S_TEXT/UTF8
Codec ID/Info : UTF-8 Plain Text
Duration : 40 min 27 s
Bit rate : 77 b/s
Count of elements : 660
Stream size : 23.1 KiB (0%)
Title : SDH
Language : English
Default : No
Forced : No

Внимание! Раздача ведётся путём добавления новых серий; при каждом добавлении создаётся новый торрент. Чтобы начать докачку новой серии, пользователям необходимо сделать следующее:
Остановить скачивание.
Удалить старый торрент у себя из клиента (старые серии удалять не надо).
Скачать новый торрент и запустить его у себя в клиенте вместо старого, при этом указать клиенту путь в старую папку куда и должно происходить скачивание новых серий.
Ваш клиент при этом должен произвести хеширование (проверку) старой папки (если не производит сам - помогите ему сделать это), и будет докачивать только те серии которых у вас ещё нет. Старые серии при этом не удаляются, а продолжают раздаваться!
Eсли вы уже удалили старые серии, то предотвратить повторную закачку старых серий можно, отжав галочку в соответсвующих местах при запуске нового торрента. По возможности, желательно не удалять старые серии как можно дольше чтобы релизёр не столько продолжал раздавать старые серии, а смог сконцентрироваться на новых.
pb.wtf



Скачать Маньяк через торрент http://img11.lostpic.net/2018/09/25/29db3cb753b57b389c37adee084ddf08.jpg Скачать фильм Маньяк через торрент бесплантно в хорошем качестве Описание: Энни Лендсберг и Оуэн Милгрим — два незнакомца, согласившиеся принять участие в испытании нового фармацевтического средства. У ... 10 10 4
Info! Золотая раздача, скачанное не засчитывается.
Торрент: Зарегистрирован [2018-10-27 20:15] · скачан: 20 раз
Статус: √ проверено
Размер: 84.44 GB
Как cкачать? Как скачать Маньяк через торрент | qTorrent

% Раздел Тема Автор DL S | L
Зарубежные сериалы [ 7.86 GB ] Маньяк / Maniac / Сезон: 1 / Серии: 1-10 из 10 [2018 WEB-DLRip] [MVO] killermax2013 Скачать
1 | 0
Зарубежные сериалы [ 5.32 GB ] Помешанный / Маньяк / Maniac / Сезон: 1 / Серии: 1-10 из 10 [2014 WEBRip 720p] MVO [Good People] bober100 Скачать
1 | 0
Зарубежные сериалы [ 2.45 GB ] Маньяк / Помешанный / Maniac / Сезон: 1 / Серии: 1-10 из 10 [2014 WEB-DLRip] MVO [Good People] bober100 Скачать
1 | 0
Зарубежные сериалы [ 7.89 GB ] Маньяк / Maniac / Сезон: 1 / Серии: 1-10 из 10 [2018 WEB-DL 720p] [DVO] killermax2013 Скачать
4 | 0
Зарубежные сериалы [ 6.38 GB ] Маньяк / Maniac / Сезон: 1 / Серии: 1-10 из 10 [2018 WEB-DLRip] [MVO] killermax2013 Скачать
1 | 0
Зарубежные сериалы [ 4.66 GB ] Маньяк / Maniac / Сезон: 1 / Серии: 1-10 из 10 [2018 WEBRip] MVO [LostFilm] bober100 Скачать
1 | 0
Зарубежные сериалы [ 36.81 GB ] Маньяк / Maniac / Сезон: 1 / Серии: 1-10 из 10 [2018 WEBRip 1080p] [MVO] killermax2013 Скачать
1 | 1

28-11-2019 20:33  

Отключить всю рекламу на сайте

    Дорогой пользователь! Огромная просьба, поблагодарите релизера, оцените раздачу и оставьте свои комментарий, если Вы скачали Маньяк через торрент бесплатно! Внесите свою лепту в развитие PiratBit!
    Комментировать посты могут только пользователи прошедшие не сложную регистрацию
    Показать сообщения:    

    Маньяк через торрент
    Скачать бесплатно Маньяк
    Маньяк скачать торрент
    Маньяк смотреть онлайн
    Cкачать фильм Маньяк бесплатно
    Маньяк скачать торрент в хорошем качестве
    Маньяк смотреть онлайн бесплатно в хорошем качестве


    Вы не можете начинать темы
    Вы не можете отвечать на сообщения
    Вы не можете редактировать свои сообщения
    Вы не можете удалять свои сообщения
    Вы не можете голосовать в опросах
    Вы не можете прикреплять файлы к сообщениям
    Вы можете скачивать файлы