Marvel's Avengers Deluxe Edition (супер цена) 159р. Внимание количество ограничено!!!

2 сезон

iTunes

iTunes

1

iTunes

iTunes

iTunes

WEBRip

iTunes

30
pack

Новость дня

ВАЖНО

!!Акция!!

Alien_RageХит недели

RePack

Horizon Zero Dawn

ИГРА 18+

pack

RePack

jed

!!Акция!!

Alien_Rage

RePack

fifa19

RePack

Assassins Creed: Odyssey

RePack

NEED FOR SPEED™ PAYBACK

4 сезон

9 сезон

Бесстыжие 9 сезон

Все сериалы

все сериалы на PB.wtf

RePack

FAR CRY 5
  

Нулевой прообраз / Ghost Source Zero (Марк Чэн) [2017, Фантастика, WEB-DL 720p] MVO ["Синема УС"] pb.wtf

Нулевой прообраз через торрент pb.wtf

Размер: 3.27 GB | Добавлен: 1 год 11 мес. назад | Торрент скачан:49 раз
Скачать  

01-10-2018 13:49 Нулевой прообраз Скачать торрент  

Нулевой прообраз / Ghost Source ZeroГод выпуска: 2017
Страна: США
Жанр: Фантастика
Продолжительность: 01:36:06
Перевод: Любительский (многоголосый) | "Синема УС"
Субтитры: отсутствуют

Режиссер: Марк Чэн

rating

В ролях:

Джо Барбагалло, Джин Готово, Кейдж Ями, Натали Джин, Джа Грин, Эмили Деннис, Гайвио Джозеф, Камерон Омидиан, Лоуренс Дж Мерфи, Крис Дайер

Описание:

Произошла революция искусственного интеллекта. Вся Америка наблюдает за этим на экранах Ливин Уолл и смартфонах Джиниус. И только отдел Национальной Безопасности по киберпреступности пытается остановить ботов и боргов.

Качество: WEB-DL 720p
Формат: MKV

Видео: h.264, 4 473 Кбит/с, 1280x720
Аудио#1: Русский, (AC3, 2 ch, 384 Кбит/с)
скриншот  скриншот  скриншот  

Общее
Уникальный идентификатор : 189767241958354717252460500705609530528 (0x8EC3D7645C6A785995E302CE0F3C3CA0)
Полное имя : D:\Ghost.Source.Zero.2018.P.WEB-DL.72Op.mkv
Формат : Matroska
Версия формата : Version 2
Размер файла : 3,27 Гбайт
Продолжительность : 1 ч. 36 м.
Режим общего битрейта : Переменный
Общий поток : 4859 Кбит/сек
Дата кодирования : UTC 2018-10-01 10:31:59
Программа кодирования : mkvmerge v8.3.0 ('Over the Horizon') 64bit
Библиотека кодирования : libebml v1.3.1 + libmatroska v1.4.2

Видео
Идентификатор : 1
Формат : AVC
Формат/Информация : Advanced Video Codec
Профиль формата : High@L4.1
Параметр CABAC формата : Да
Параметр RefFrames формата : 4 кадра
Идентификатор кодека : V_MPEG4/ISO/AVC
Продолжительность : 1 ч. 36 м.
Вид битрейта : Переменный
Битрейт : 4473 Кбит/сек
Максимальный битрейт : 5000 Кбит/сек
Ширина : 1280 пикселей
Высота : 720 пикселей
Соотношение сторон : 16:9
Режим частоты кадров : Постоянный
Частота кадров : 23,976 (24000/1001) кадра/сек
Стандарт вещания : Component
Цветовое пространство : YUV
Субдискретизация насыщенности : 4:2:0
Битовая глубина : 8 бит
Тип развёртки : Прогрессивная
Бит/(Пиксели*Кадры) : 0.198
Размер потока : 2,95 Гбайт (90%)
Default : Да
Forced : Нет
Цветовой диапазон : Limited
Основные цвета : BT.709
Характеристики трансфера : BT.709
Коэффициенты матрицы : BT.709

Аудио
Идентификатор : 2
Формат : AC-3
Формат/Информация : Audio Coding 3
Расширение режима : CM (complete main)
Параметр Endianness формата : Big
Идентификатор кодека : A_AC3
Продолжительность : 1 ч. 36 м.
Вид битрейта : Постоянный
Битрейт : 384 Кбит/сек
Каналы : 2 канала
Расположение каналов : Front: L R
Частота : 48,0 КГц
Частота кадров : 31,250 кадров/сек (1536 spf)
Метод сжатия : С потерями
Размер потока : 265 Мбайт (8%)
Default : Да
Forced : Нет

pb.wtf



Скачать Нулевой прообраз через торрент http://img11.lostpic.net/2018/10/01/96de83b981798cc10012e1d8d6b4ef20.jpg Скачать фильм Нулевой прообраз через торрент бесплантно в хорошем качестве Описание: Произошла революция искусственного интеллекта. Вся Америка наблюдает за этим на экранах Ливин Уолл и смартфонах Джиниус. И только ... 10 10 3
Торрент: Зарегистрирован [2018-10-01 13:49] · скачан: 49 раз
Статус: T временная
Размер: 3.27 GB
Как cкачать? Как скачать Нулевой прообраз через торрент | qTorrent

% Раздел Тема Автор DL S | L
T Фильмы (мультфильмы) cо спонсором показа (Новинки AVI/MKV) [ 1.37 GB ] Нулевой прообраз / Ghost Source Zero [2017 WEB-DLRip] MVO ["Синема УС"] bober100 Скачать
1 | 0

28-11-2019 20:33  

Отключить всю рекламу на сайте

    Дорогой пользователь! Огромная просьба, поблагодарите релизера, оцените раздачу и оставьте свои комментарий, если Вы скачали Нулевой прообраз через торрент бесплатно! Внесите свою лепту в развитие PiratBit!
    Комментировать посты могут только пользователи прошедшие не сложную регистрацию
    Показать сообщения:    

    Нулевой прообраз через торрент
    Скачать бесплатно Нулевой прообраз
    Нулевой прообраз скачать торрент
    Нулевой прообраз смотреть онлайн
    Cкачать фильм Нулевой прообраз бесплатно
    Нулевой прообраз скачать торрент в хорошем качестве
    Нулевой прообраз смотреть онлайн бесплатно в хорошем качестве


    Вы не можете начинать темы
    Вы не можете отвечать на сообщения
    Вы не можете редактировать свои сообщения
    Вы не можете удалять свои сообщения
    Вы не можете голосовать в опросах
    Вы не можете прикреплять файлы к сообщениям
    Вы можете скачивать файлы