Ссылка на приватное зеркало нашего сайта всего за 1$. Внимание количество ограничено!!!

2 сезон

iTunes

1 сезон

1

2 сезон

2 сезон

iTunes

1 сезон

RePack

30

Новинка

ВАЖНО

ИГРА 18+

pack

RePack

MK11
pack

Забери бонус

RePack

jed

!!Акция!!

Alien_Rage

RePack

fifa19

RePack

Assassins Creed: Odyssey

RePack

NEED FOR SPEED™ PAYBACK

4 сезон

9 сезон

Бесстыжие 9 сезон

Все сериалы

все сериалы на PB.wtf

RePack

FAR CRY 5
  

Крутые ребята / The Cool Kids / Сезон: 1 / Серии: 1-22 из 22 (Дон Скардино, Робби Кантримэн, Энтони Джозеф Рич) [2018, Комедия, WEB-DL 720p] MVO [Jaskier] pb.wtf

Крутые ребята через торрент pb.wtf

Размер: 15.75 GB | Добавлен: 1 год 5 мес. назад | Торрент скачан:5 раз
Скачать  

02-10-2018 02:27 Крутые ребята Скачать торрент  

Крутые ребята / The Cool Kids

Год выпуска: 2018
Страна: США
Жанр: Комедия
Продолжительность: ~ 00:22:00
Перевод: Профессиональный (многоголосый закадровый) | Jaskier
Субтитры: отсутствуют

Режиссёр: Дон Скардино, Робби Кантримэн, Энтони Джозеф Рич

В ролях:

Джейми Фарр, Рита Грэй, Дэвид Алан Грир, Лесли Джордан, Вики Лоуренс, Мартин Мулл, Альби Кастро

Описание:

Давние друзья Хэнк, Чарли, Сид и Маргарет — пенсионеры, они готовы нарушать все правила ради веселья, ведь сейчас им терять уже нечего. В центре истории — трое товарищей из дома престарелых, чей незыблемый авторитет пошатнулся с появлением новенькой бабули-бунтарки, преисполненной решимости свергнуть зарвавшихся дедков. Этакая средняя школа для тех, кому слегка за 70. Или «В Филадельфии всегда солнечно» 30 лет спустя.

rating

Качество: WEB-DL 720p
Формат: MKV

Видео: X264, ~ 3700 kbps, 1280x720 (16:9), 23.976 fps
Аудио 1: AC3, 48,0 КГц, 6 ch, 384 kbps - Rus
Аудио 2: AC3, 48,0 КГц, 6 ch, 384 kbps - Eng


Реклама: аудио, два раза в начале и в конце по 13 секунд
Общее
Уникальный идентификатор                 : 212596611025441164017326556107950380739 (0x9FF09E3053C22DD9AE1EABA94AC1D6C3)
Полное имя                               : V:ONGOING\The Cool Kids. Season 1 (WEB-DL l 720p l Jaskier)\The.Cool.Kids.S01E01.720p.Jaskier.mkv
Формат                                   : Matroska
Версия формата                           : Version 2
Размер файла                             : 699 Мбайт
Продолжительность                        : 21 м.
Общий поток                              : 4520 Кбит/сек
Дата кодирования                         : UTC 2018-10-01 20:03:27
Программа кодирования                    : mkvmerge v7.8.0 ('River Man') 32bit built on Apr  3 2015 12:11:22
Библиотека кодирования                   : libebml v1.3.1 + libmatroska v1.4.2

Видео
Идентификатор                            : 1
Формат                                   : AVC
Формат/Информация                        : Advanced Video Codec
Профиль формата                          : High@L4.1
Параметр CABAC формата                   : Да
Параметр ReFrames формата                : 9 кадров
Идентификатор кодека                     : V_MPEG4/ISO/AVC
Продолжительность                        : 21 м.
Битрейт                                  : 3662 Кбит/сек
Ширина                                   : 1280 пикселей
Высота                                   : 720 пикселей
Соотношение сторон                       : 16:9
Режим частоты кадров                     : Постоянный
Частота кадров                           : 23,976 (24000/1001) кадра/сек
Цветовое пространство                    : YUV
Субдискретизация насыщенности            : 4:2:0
Битовая глубина                          : 8 бит
Тип развёртки                            : Прогрессивная
Бит/(Пиксели*Кадры)                      : 0.166
Размер потока                            : 566 Мбайт (81%)
Язык                                     : English
Default                                  : Да
Forced                                   : Нет

Аудио #1
Идентификатор                            : 2
Формат                                   : AC-3
Формат/Информация                        : Audio Coding 3
Расширение режима                        : CM (complete main)
Параметр Endianness формата              : Big
Идентификатор кодека                     : A_AC3
Продолжительность                        : 21 м.
Вид битрейта                             : Постоянный
Битрейт                                  : 384 Кбит/сек
Каналы                                   : 6 каналов
Расположение каналов                     : Front: L C R, Side: L R, LFE
Частота                                  : 48,0 КГц
Частота кадров                           : 31,250 кадров/сек (1536 spf)
Метод сжатия                             : С потерями
Размер потока                            : 59,4 Мбайт (8%)
Заголовок                                : Jaskier
Язык                                     : Russian
Default                                  : Да
Forced                                   : Нет

Аудио #2
Идентификатор                            : 3
Формат                                   : AC-3
Формат/Информация                        : Audio Coding 3
Расширение режима                        : CM (complete main)
Параметр Endianness формата              : Big
Идентификатор кодека                     : A_AC3
Продолжительность                        : 21 м.
Вид битрейта                             : Постоянный
Битрейт                                  : 384 Кбит/сек
Каналы                                   : 6 каналов
Расположение каналов                     : Front: L C R, Side: L R, LFE
Частота                                  : 48,0 КГц
Частота кадров                           : 31,250 кадров/сек (1536 spf)
Метод сжатия                             : С потерями
Размер потока                            : 59,4 Мбайт (8%)
Язык                                     : English
Default                                  : Нет
Forced                                   : Нет
скриншот  скриншот  скриншот  
Когда раздача ведётся путём добавления новых серий, при каждом добавлении создётся новый торрент. Чтобы начать докачку новой серии, пользователям необходимо сделать следующее:
(1) остановить скачивание,
(2) удалить старый торрент у себя из клиента (старые серии удалять не надо),
(3) скачать новый торрент и запустить его у себя в клиенте вместо старого, при этом указать клиенту путь в старую папку, куда и должно происходить скачивание новых серий.
Ваш клиент при этом должен произвести хеширование (проверку) старой папки (если не производит сам - помогите ему сделать это), и будет докачивать только те серии, которых у вас ещё нет. Старые серии при этом не удаляются, а продолжают раздаваться!
Eсли вы уже удалили старые серии, то предотвратить повторную закачку старых серий можно, отжав галочку в соответсвующих местах при запуске нового торрента. По возможности, желательно не удалять старые серии как можно дольше, чтобы релизёр не столько продолжал раздавать старые серии, а смог сконцентрироваться на новых.
pb.wtf



Скачать Крутые ребята через торрент http://i91.fastpic.ru/big/2018/1002/b0/7049723f19926eff6651c37e922dd5b0.png Скачать фильм Крутые ребята через торрент бесплантно в хорошем качестве Описание: Давние друзья Хэнк, Чарли, Сид и Маргарет — пенсионеры, они готовы нарушать все правила ради веселья, ведь сейчас им терять уже ... 7.8 10 4
Info! Серебряная раздача, засчитывается только 50% скачанного.
Торрент: Зарегистрирован [2019-05-27 13:07] · скачан: 5 раз
Статус: √ проверено
Размер: 15.75 GB
Как cкачать? Как скачать Крутые ребята через торрент | qTorrent

% Раздел Тема Автор DL S | L
Зарубежные сериалы [ 35.98 GB ] Крутые ребята / The Cool Kids / Сезон: 1 / Серии: 1-22 из 22 [2018 WEB-DL 1080p] MVO [TVShows] bober100 Скачать
1 | 0
Зарубежные сериалы [ 18.1 GB ] Крутые ребята / The Cool Kids / Сезон: 1 / Серии: 1-22 из 22 [2018 WEB-DL 720p] MVO [TVShows] bober100 Скачать
1 | 0
Зарубежные сериалы [ 5.7 GB ] Крутые ребята / The Cool Kids / Сезон: 1 / Серии: 1-22 из 22 [2018 WEB-DLRip] MVO [Jaskier] bober100 Скачать
1 | 0

28-11-2019 20:33  

Отключить всю рекламу на сайте

    Дорогой пользователь! Огромная просьба, поблагодарите релизера, оцените раздачу и оставьте свои комментарий, если Вы скачали Крутые ребята через торрент бесплатно! Внесите свою лепту в развитие PiratBit!
    Комментировать посты могут только пользователи прошедшие не сложную регистрацию
    Показать сообщения:    

    Крутые ребята через торрент
    Скачать бесплатно Крутые ребята
    Крутые ребята скачать торрент
    Крутые ребята смотреть онлайн
    Cкачать фильм Крутые ребята бесплатно
    Крутые ребята скачать торрент в хорошем качестве
    Крутые ребята смотреть онлайн бесплатно в хорошем качестве


    Вы не можете начинать темы
    Вы не можете отвечать на сообщения
    Вы не можете редактировать свои сообщения
    Вы не можете удалять свои сообщения
    Вы не можете голосовать в опросах
    Вы не можете прикреплять файлы к сообщениям
    Вы можете скачивать файлы