новый адрес пиратбит piratbit
Мега распродажа FORZA HORIZON 4 ULTIMATE+ВСЕ DLC+ОНЛАЙН всего за 499р. 349 руб. (супер цена). Внимание количество ограничено!!!

iTunes

1+1

iTunes

мы

iTunes

1

iTunes

Чернобыль

iTunes

Ральф против интернета

Лицензия

ПШазам

Лицензия

Игра престолов

Лицензия

30
pack

ВАЖНО

!!Акция!!

Alien_RageХит недели

RePack

Resident Evil 21

ИГРА 18+

pack

RePack

Metro:Exodus

!!Акция!!

Alien_Rage

RePack

fifa19

RePack

Assassins Creed: Odyssey

RePack

NEED FOR SPEED™ PAYBACK

3 сезон

9 сезон

Бесстыжие 9 сезон

Все сериалы

все сериалы на PB.wtf

RePack

FAR CRY 5
Ребята, катастрофически не хватает 1900р. для оплаты серверов за Октябрь (всвязи с блокировками трафик упал в 3 раза), 1-2р., выручайте.
  

Суперфлай / Superfly (Директор Икс.) [2018, боевик, триллер, криминал, BDRip 720p] MVO [HDrezka Studio] pb.wtf

Суперфлай через торрент pb.wtf

Размер: 7.22 GB | Добавлен: 1 год 1 мес. назад | Торрент скачан:40 раз
Скачать  

02-10-2018 04:20 Суперфлай Скачать торрент  

Суперфлай / Superfly
Год выпуска: 2018
Страна: США
Жанр: боевик, триллер, криминал
Продолжительность: 01:56:10
Перевод: Профессиональный (многоголосый) | HDrezka Studio
Субтитры: Английские

Режиссер: Директор Икс.

rating

В ролях:

Тревор Джексон, Джейсон Митчелл, Майкл Кеннет Уильямс, Лекс Скотт Дэвис, Дженнифер Моррисон, Каалан Рашад Уокер, Эсай Моралес, Андреа Лондо, Биг Банк Блэк, Биг Бой

Описание:

Темнокожий наркодилер Янгблад Прист ждет не дождется, когда он сможет выйти из преступного бизнеса. Но для начала ему нужно заработать на честную жизнь, продав огромную партию кокаина. Список дел Приста пополняется разборками с полицейскими, разоблачением друга-предателя и устройством личной жизни с любимой девушкой Джорджией.

Качество: BDRip 720p
Формат: MKV

Видео: MPEG-4 AVC, 8 700 Кбит/с, 1280x688, 23.976 Кадр/c
Аудио: Русский (AC3, 2 ch, 192 Кбит/с)
скриншот  скриншот  скриншот  скриншот  

General
Unique ID : 104598523449707983096360491476083151341 (0x4EB0F15E4B07ADCC36C5B3C2515E11ED)
Complete name : D:\Суперфлай.2018.BDRip (720p).mkv
Format : Matroska
Format version : Version 4 / Version 2
File size : 7.22 GiB
Duration : 1 h 56 min
Overall bit rate : 8 891 kb/s
Movie name : SuperFly.2018.1080p.BluRay.REMUX.AVC.DTS-HD.MA.5.1-FGT
Writing application : XviD4PSP 7.0.457 DAILY
Writing library : Lavf57.71.100
ErrorDetectionType : Per level 1
ENCODING_INFO : MATROSKA,WEBM > MKV / H264 > X264 VBR-3P 8700kbps HQ / AC3 > AC3 CBR 192kbps

Video
ID : 1
Format : AVC
Format/Info : Advanced Video Codec
Format profile : High@L3.1
Format settings : CABAC / 4 Ref Frames
Format settings, CABAC : Yes
Format settings, ReFrames : 4 frames
Codec ID : V_MPEG4/ISO/AVC
Duration : 1 h 56 min
Bit rate : 8 700 kb/s
Width : 1 280 pixels
Height : 688 pixels
Display aspect ratio : 1.85:1
Frame rate mode : Constant
Frame rate : 23.976 (24000/1001) FPS
Color space : YUV
Chroma subsampling : 4:2:0
Bit depth : 8 bits
Scan type : Progressive
Bits/(Pixel*Frame) : 0.412
Stream size : 6.92 GiB (96%)
Writing library : x264 core 155 r2901M 7d0ff22
Encoding settings : cabac=1 / ref=3 / deblock=1:-1:-1 / analyse=0x3:0x133 / me=hex / subme=7 / psy=1 / psy_rd=1.00:0.20 / mixed_ref=1 / me_range=16 / chroma_me=1 / trellis=1 / 8x8dct=1 / cqm=0 / deadzone=21,11 / fast_pskip=1 / chroma_qp_offset=-3 / threads=5 / lookahead_threads=1 / sliced_threads=0 / nr=0 / decimate=1 / interlaced=0 / bluray_compat=0 / constrained_intra=0 / bframes=3 / b_pyramid=2 / b_adapt=2 / b_bias=0 / direct=3 / weightb=1 / open_gop=0 / weightp=2 / keyint=240 / keyint_min=24 / scenecut=40 / intra_refresh=0 / rc_lookahead=40 / rc=2pass / mbtree=1 / bitrate=8700 / ratetol=1.0 / qcomp=0.60 / qpmin=0 / qpmax=69 / qpstep=4 / cplxblur=20.0 / qblur=0.5 / ip_ratio=1.40 / aq=1:1.00
Language : English
Default : Yes
Forced : No

Audio
ID : 2
Format : AC-3
Format/Info : Audio Coding 3
Codec ID : A_AC3
Duration : 1 h 56 min
Bit rate mode : Constant
Bit rate : 192 kb/s
Channel(s) : 2 channels
Channel positions : Front: L R
Sampling rate : 48.0 kHz
Frame rate : 31.250 FPS (1536 SPF)
Bit depth : 16 bits
Compression mode : Lossy
Stream size : 160 MiB (2%)
Language : Russian
Service kind : Complete Main
Default : Yes
Forced : No

Text
ID : 3
Format : UTF-8
Codec ID : S_TEXT/UTF8
Codec ID/Info : UTF-8 Plain Text
Language : English
Default : Yes
Forced : No

pb.wtf



Скачать Суперфлай через торрент http://c.radikal.ru/c06/1809/6e/aae0d208e160.jpg Скачать фильм Суперфлай через торрент бесплантно в хорошем качестве Описание: Темнокожий наркодилер Янгблад Прист ждет не дождется, когда он сможет выйти из преступного бизнеса. Но для начала ему нужно ... 10 10 4
Торрент: Зарегистрирован [2018-10-02 04:20] · скачан: 40 раз
Статус: T временная
Размер: 7.22 GB
Как cкачать? Как скачать Суперфлай через торрент | qTorrent

% Раздел Тема Автор DL S | L
Фильмы (Blu-ray, BD-Remux, HDDVD) [ 33.5 GB ] Суперфлай / Superfly [2018 Blu-ray EUR 1080p] MVO [] bober100 Скачать
1 | 0
Фильмы (Blu-ray, BD-Remux, HDDVD) [ 22.5 GB ] Суперфлай / Superfly [2018 BD Remux 1080p] MVO [] bober100 Скачать
1 | 0
Фильмы 2018 [DVDrip, WEB-DLRip, HDrip] (DUB, MVO) [ 2.18 GB ] Суперфлай / Superfly [2018 BDRip] MVO [] Twi7ter Скачать
1 | 0
Фильмы 2018 [DVDrip, WEB-DLRip, HDrip] (DUB, MVO) [ 1.46 GB ] Суперфлай / Superfly [2018 BDRip] MVO [] Twi7ter Скачать
1 | 0
Фильмы (Blu-ray, BD-Remux, HDDVD) [ 23.21 GB ] Суперфлай / Superfly [2018 BD Remux 1080p] MVO [R5] bober100 Скачать
1 | 0
Фильмы 2018 [DVDrip, WEB-DLRip, HDrip] (DUB, MVO) [ 1.46 GB ] Суперфлай / Superfly [2018 BDRip] MVO [R5] bober100 Скачать
1 | 0
T Фильмы [HD 720p, 1080p] (Хороший звук DUB, MVO) [ 7.92 GB ] Суперфлай / Superfly [2018 BDRip 1080p] MVO [HDrezka Studio] bober100 Скачать
1 | 0


>> Регистрируемся здесь <<






Отзывы и комментарии о схеме читаем и пишем здесь: ---> Отзывы и комментарии о схеме

Новые благодарочки в телеграм довольных пользователей:
скриншот   скриншот   скриншот   скриншот   скриншот

02-10-2018 05:22 Суперфлай Скачать торрент  

как можно $16 000 000 так "уделать"pb.wtf



10-11-2018 20:07 Суперфлай Скачать торрент  

GuruBrain писал(а):

как можно $16 000 000 так "уделать"

как обычно.... бедным , богатых не понять....pb.wtf



    Дорогой пользователь! Огромная просьба, поблагодарите релизера, оцените раздачу и оставьте свои комментарий, если Вы скачали Суперфлай через торрент бесплатно! Внесите свою лепту в развитие PiratBit!
    Комментировать посты могут только пользователи прошедшие не сложную регистрацию
    Показать сообщения:    

    Суперфлай через торрент
    Скачать бесплатно Суперфлай
    Суперфлай скачать торрент
    Суперфлай смотреть онлайн
    Cкачать фильм Суперфлай бесплатно
    Суперфлай скачать торрент в хорошем качестве
    Суперфлай смотреть онлайн бесплатно в хорошем качестве


    Вы не можете начинать темы
    Вы не можете отвечать на сообщения
    Вы не можете редактировать свои сообщения
    Вы не можете удалять свои сообщения
    Вы не можете голосовать в опросах
    Вы не можете прикреплять файлы к сообщениям
    Вы можете скачивать файлы