Ссылка на приватное зеркало всего за 1$. Внимание количество ограничено!!!


iTunes

1+1

iTunes

мы

WEB-DL

1

iTunes

Чернобыль

iTunes

Ральф против интернета

Лицензия

ПШазам

Лицензия

Оно 2

WEB-DL

30
pack

Вам бонус

ВАЖНО

!!Акция!!

Alien_RageХит недели

RePack

Resident Evil 21

ИГРА 18+

pack

RePack

jed

!!Акция!!

Alien_Rage

RePack

fifa19

RePack

Assassins Creed: Odyssey

RePack

NEED FOR SPEED™ PAYBACK

4 сезон

9 сезон

Бесстыжие 9 сезон

Все сериалы

все сериалы на PB.wtf

RePack

FAR CRY 5
Ребята, катастрофически не хватает 1900р. для оплаты серверов за Октябрь (всвязи с блокировками трафик упал в 3 раза), 1-2р., выручайте.
  

Небоскрёб / Skyscraper (Роусон Маршалл Тёрбер) [2018, боевик, триллер, драма, криминал, BDRip-AVC] Dub [Лицензия] - ExKinoRay pb.wtf

Небоскрёб через торрент pb.wtf

Раздают: 6 [ 0 KB/s ]
Размер: 2.33 GB | Добавлен: 1 год 1 мес. назад | Торрент скачан:837 раз
Скачать  

02-10-2018 04:21 Небоскрёб Скачать торрент  

Информация о фильме
Название: Небоскрёб
Оригинальное название: Skyscraper
Год выпуска: 2018
Жанр: Боевик, триллер, драма, криминал
Режиссер: Роусон Маршалл Тёрбер
В ролях: Дуэйн Джонсон, Нив Кэмпбелл, Пабло Шрайбер, Ноа Тейлор, Кевин Ранкин, Роланд Мёллер, Байрон Манн, Мэтт О`Лири, Адриан Холмс

Описание:
Самый высокий и технологичный небоскрёб в мире становится центром огненной катастрофы. Только бывший агент ФБР, а теперь эксперт по безопасности Уилл Форд может спасти вертикальный город под небесами. Когда нельзя доверять никому, а жизнь семьи в опасности, каждая секунда на счету.

rating

Страна: США
Студия: Legendary Entertainment, Flynn Picture Company, Seven Bucks Productions
Продолжительность: 01:42:24
Перевод: Дублированный |Лицензия

Кодек: х264
Качество: BDRip-AVC
Видео: MPEG-4 AVC, 1024x426 (2.40:1), 23,976 fps, ~ 2185 kbps
Аудио #01: 48 kHz, AC3, 5.1, 448 Kbps | Лицензия | RUS |
Аудио #02: 48 kHz, AC3, 2.0, 192 Kbps | Студия LeDoyen | UKR |
Аудио #03: 48 kHz, AC3, 5.1, 448 Kbps | Оригинал | ENG |
Субтитры: Русские (Forced,Full), английские (Full,SDH)
Навигация по главам: Есть
General
Unique ID : 249650013517243206537451881241961680881 (0xBBD0D7FA6D28DFE8A3BCEF154C4DCFF1)
Complete name : D:\Skyscraper.2018.iTunes.BDRip.AVC.ExKinoRay.mkv
Format : Matroska
Format version : Version 2
File size : 2.33 GiB
Duration : 1 h 42 min
Overall bit rate : 3 261 kb/s
Movie name : Skyscraper 2018 from ExKinoRay
Encoded date : UTC 2018-10-28 00:30:01
Writing application : mkvmerge v5.6.0 ('Kenya Kane') built on May 27 2012 16:44:04
Writing library : libebml v1.2.3 + libmatroska v1.3.0

Video
ID : 1
Format : AVC
Format/Info : Advanced Video Codec
Format profile : High@L4.1
Format settings, CABAC : Yes
Format settings, ReFrames : 12 frames
Codec ID : V_MPEG4/ISO/AVC
Duration : 1 h 42 min
Bit rate : 2 185 kb/s
Width : 1 024 pixels
Height : 426 pixels
Display aspect ratio : 2.40:1
Frame rate mode : Constant
Frame rate : 23.976 (23976/1000) FPS
Color space : YUV
Chroma subsampling : 4:2:0
Bit depth : 8 bits
Scan type : Progressive
Bits/(Pixel*Frame) : 0.209
Stream size : 1.51 GiB (65%)
Title : Enigma
Writing library : x264 core 152 r2851 ba24899
Encoding settings : cabac=1 / ref=12 / deblock=1:-2:-3 / analyse=0x3:0x113 / me=umh / subme=10 / psy=1 / psy_rd=1.03:0.10 / mixed_ref=1 / me_range=32 / chroma_me=1 / trellis=2 / 8x8dct=1 / cqm=0 / deadzone=21,11 / fast_pskip=0 / chroma_qp_offset=-3 / threads=12 / lookahead_threads=3 / sliced_threads=0 / nr=0 / decimate=0 / interlaced=0 / bluray_compat=0 / constrained_intra=0 / bframes=11 / b_pyramid=2 / b_adapt=2 / b_bias=0 / direct=3 / weightb=1 / open_gop=0 / weightp=2 / keyint=240 / keyint_min=23 / scenecut=40 / intra_refresh=0 / rc=2pass / mbtree=0 / bitrate=2185 / ratetol=1.0 / qcomp=0.60 / qpmin=0 / qpmax=51 / qpstep=4 / cplxblur=20.0 / qblur=0.5 / ip_ratio=1.40 / pb_ratio=1.30 / aq=3:0.90
Language : English
Default : Yes
Forced : No
Color range : Limited
Color primaries : BT.709
Transfer characteristics : BT.709
Matrix coefficients : BT.709

Audio #1
ID : 2
Format : AC-3
Format/Info : Audio Coding 3
Mode extension : CM (complete main)
Format settings, Endianness : Big
Codec ID : A_AC3
Duration : 1 h 42 min
Bit rate mode : Constant
Bit rate : 448 kb/s
Channel(s) : 6 channels
Channel positions : Front: L C R, Side: L R, LFE
Sampling rate : 48.0 kHz
Frame rate : 31.250 FPS (1536 spf)
Compression mode : Lossy
Stream size : 328 MiB (14%)
Title : Dub (BD Rus)
Language : Russian
Default : Yes
Forced : No

Audio #2
ID : 3
Format : AC-3
Format/Info : Audio Coding 3
Mode extension : CM (complete main)
Format settings, Endianness : Big
Codec ID : A_AC3
Duration : 1 h 42 min
Bit rate mode : Constant
Bit rate : 192 kb/s
Channel(s) : 2 channels
Channel positions : Front: L R
Sampling rate : 48.0 kHz
Frame rate : 31.250 FPS (1536 spf)
Compression mode : Lossy
Stream size : 141 MiB (6%)
Title : Dub (LeDoyen)
Language : Ukrainian
Default : No
Forced : No

Audio #3
ID : 4
Format : AC-3
Format/Info : Audio Coding 3
Mode extension : CM (complete main)
Format settings, Endianness : Big
Codec ID : A_AC3
Duration : 1 h 42 min
Bit rate mode : Constant
Bit rate : 448 kb/s
Channel(s) : 6 channels
Channel positions : Front: L C R, Side: L R, LFE
Sampling rate : 48.0 kHz
Frame rate : 31.250 FPS (1536 spf)
Compression mode : Lossy
Stream size : 328 MiB (14%)
Language : English
Default : No
Forced : No

Text #1
ID : 5
Format : UTF-8
Codec ID : S_TEXT/UTF8
Codec ID/Info : UTF-8 Plain Text
Title : Forced
Language : Russian
Default : Yes
Forced : No

Text #2
ID : 6
Format : UTF-8
Codec ID : S_TEXT/UTF8
Codec ID/Info : UTF-8 Plain Text
Title : Full
Language : Russian
Default : No
Forced : No

Text #3
ID : 7
Format : UTF-8
Codec ID : S_TEXT/UTF8
Codec ID/Info : UTF-8 Plain Text
Title : Full
Language : English
Default : No
Forced : No

Text #4
ID : 8
Format : UTF-8
Codec ID : S_TEXT/UTF8
Codec ID/Info : UTF-8 Plain Text
Title : SDH
Language : English
Default : No
Forced : No

Menu
00:00:00.000 : en:00:00:00.000
00:04:24.764 : en:00:04:24.764
00:10:07.357 : en:00:10:07.357
00:16:09.927 : en:00:16:09.927
00:21:12.605 : en:00:21:12.605
00:25:34.992 : en:00:25:34.992
00:30:11.727 : en:00:30:11.727
00:35:23.913 : en:00:35:23.913
00:40:07.113 : en:00:40:07.113
00:47:18.961 : en:00:47:18.961
00:52:10.252 : en:00:52:10.252
00:58:16.785 : en:00:58:16.785
01:02:02.969 : en:01:02:02.969
01:05:29.634 : en:01:05:29.634
01:09:59.404 : en:01:09:59.404
01:14:31.425 : en:01:14:31.425
01:17:18.259 : en:01:17:18.259
01:23:33.342 : en:01:23:33.342
01:27:46.219 : en:01:27:46.219
01:32:54.569 : en:01:32:54.569
Релиз от:

Автор релиза: pb.wtf



Скачать Небоскрёб через торрент https://b.radikal.ru/b27/1809/79/e4271cd6a1e2.png Скачать фильм Небоскрёб через торрент бесплантно в хорошем качестве Описание: Самый высокий и технологичный небоскрёб в мире становится центром огненной катастрофы. Только бывший агент ФБР, а теперь эксперт ... 10 10 15
Info! Золотая раздача, скачанное не засчитывается.
Торрент: Зарегистрирован [2018-10-28 01:10] · скачан: 837 раз
Статус: √ проверено
Размер: 2.33 GB
Как cкачать? Как скачать Небоскрёб через торрент | qTorrent



Последний раз редактировалось: Enigma2010 (2018-10-28 01:10), всего редактировалось 2 раз(а)

28-11-2019 20:33  

Отключить всю рекламу на сайте


28-10-2018 00:58 Небоскрёб Скачать торрент  

Замена на лицензию.pb.wtf



    Дорогой пользователь! Огромная просьба, поблагодарите релизера, оцените раздачу и оставьте свои комментарий, если Вы скачали Небоскрёб через торрент бесплатно! Внесите свою лепту в развитие PiratBit!
    Комментировать посты могут только пользователи прошедшие не сложную регистрацию
    Показать сообщения:    

    Небоскрёб через торрент
    Скачать бесплатно Небоскрёб
    Небоскрёб скачать торрент
    Небоскрёб смотреть онлайн
    Cкачать фильм Небоскрёб бесплатно
    Небоскрёб скачать торрент в хорошем качестве
    Небоскрёб смотреть онлайн бесплатно в хорошем качестве


    Вы не можете начинать темы
    Вы не можете отвечать на сообщения
    Вы не можете редактировать свои сообщения
    Вы не можете удалять свои сообщения
    Вы не можете голосовать в опросах
    Вы не можете прикреплять файлы к сообщениям
    Вы можете скачивать файлы