Лицензия

MVO

1

1 сезон

Лицензия

Лицензия

13

MVO

1 сезон

Deluxe Edition

pack

Рекомендуем

30

Repack

ВАЖНО

ВАЖНО

Ghostwire

RePack

jed

RePack

fifa19

RePack

RDR2

RePack

NEED FOR SPEED™ PAYBACK

RePack

Кинопоиск HD

 Острые козырьки 6 сезон

6 сезон

FAR CRY 6

RePack

Лицензия

MVO

1

1 сезон

1 сезон

Лицензия

  

Икра / Рыбное дело / Сезон: 1 / Серии: 1-8 из 8 (Виталий Воробьёв) [2018, Детектив, HDTV 1080i]

Икра через торрент pb.wtf

Размер: 26.6 GB | Добавлен: 3 года 11 мес. назад | Торрент скачан:10 раз
Смотреть онлайн Икра | Скачать   

02-10-2018 10:46 Икра Скачать торрент  

Икра (Рыбное дело)
Год выпуска: 2018
Страна: Россия
Жанр: Детектив
Продолжительность: x ~ 00:45:00
Перевод: Не требуется
Субтитры: отсутствуют

Режиссер: Виталий Воробьёв



В ролях:

Павел Майков, Дарья Мороз, Игорь Скляр, Сергей Колтаков, Вильма Кутавичюте, Дмитрий Муляр, Андрей Смирнов, Дмитрий Астрахан, Анастасия Макеева, Юлия Рутберг, Владимир Щербаков, Дарья Носик, Станислав Стрелков

Описание:

1979 год. В приморском городе, в рыбном порту при загадочных обстоятельствах погибает следователь ОБХСС Михаил Федоров. Его лучший друг и коллега Александр Костенко узнаёт о том, что гибель Федорова не была несчастным случаем. Он было сам берется за расследование, но неожиданно без объяснения причин его отстраняют. В поисках справедливости, Костенко летит в Москву на приём к генеральному прокурору. В аэропорту Шереметьево он становится невольным свидетелем нелегального провоза крупной суммы в валюте. Бдительный Костенко инициирует задержание и арест “валютного курьера» - руководящего работника Министерства Рыбного Хозяйства Аркадия Липмана. Своей профессиональной хваткой, редкой принципиальностью и дотошностью Костенко привлекает внимание не только руководства Генеральной прокуратуры СССР, но партийных чиновников и руководства Минрыбхоза, имеющих непосредственное отношение к валютному скандалу…

Качество: HDTV 1080i
Формат: TS

Видео: ~ 8000 Кбит/с, 1920x1080
Аудио: Русский (MP2, 2 ch, 192 Кбит/с)
скриншот  скриншот  скриншот  скриншот  

Общее
Идентификатор : 1 (0x1)
Полное имя : D:\Ikra.HDTV(1080i).GeneralFilm\01.Ikra.HDTV(1080i).GeneralFilm.ts
Формат : MPEG-TS
Размер файла : 3,06 Гбайт
Продолжительность : 51 м. 4 с.
Режим общего битрейта : Переменный
Общий поток : 8573 Кбит/сек

Видео
Идентификатор : 4121 (0x1019)
Идентификатор меню : 80 (0x50)
Формат : AVC
Формат/Информация : Advanced Video Codec
Профиль формата : [email protected]
Параметр CABAC формата : Да
Параметр RefFrames формата : 4 кадра
Параметр GOP формата : M=4, N=32
Идентификатор кодека : 27
Продолжительность : 51 м. 4 с.
Битрейт : 7956 Кбит/сек
Ширина : 1920 пикселей
Высота : 1080 пикселей
Соотношение сторон : 16:9
Частота кадров : 25,000 кадров/сек
Стандарт вещания : Component
Цветовое пространство : YUV
Субдискретизация насыщенности : 4:2:0
Битовая глубина : 8 бит
Тип развёртки : Чересстрочная
Метод сохранения типа развёртки : Раздельные поля
Порядок развёртки : Верхнее поле первое
Бит/(Пиксели*Кадры) : 0.153
Размер потока : 2,84 Гбайт (93%)
Цветовой диапазон : Limited
Основные цвета : BT.709
Характеристики трансфера : BT.709
Коэффициенты матрицы : BT.709

Аудио
Идентификатор : 4124 (0x101C)
Идентификатор меню : 80 (0x50)
Формат : MPEG Audio
Версия формата : Version 1
Профиль формата : Layer 2
Идентификатор кодека : 3
Продолжительность : 51 м. 4 с.
Вид битрейта : Постоянный
Битрейт : 192 Кбит/сек
Каналы : 2 канала
Частота : 48,0 КГц
Метод сжатия : С потерями
Задержка видео : -120 мс.
Размер потока : 70,1 Мбайт (2%)
Язык : Russian




Скачать Икра через торрент http://i103.fastpic.ru/big/2018/0129/d1/26b9958779fe2b956e0b8592d79790d1.jpg Скачать, смотреть онлайн Икра бесплантно в хорошем качестве Описание: 1979 год. В приморском городе, в рыбном порту при загадочных обстоятельствах погибает следователь ОБХСС Михаил Федоров. Его ... 10 10 3
Info! Золотая раздача, скачанное не засчитывается.
Торрент: Зарегистрирован [2018-10-02 10:46] · скачан: 10 раз
Статус: √ проверено
Размер: 26.6 GB
Как cкачать? Как скачать Икра через торрент | UTorrent

% Раздел Тема Автор DL S | L
Наши сериалы [ 13.95 GB ] Икра / Рыбное дело / Сезон: 1 / Серии: 1-8 из 8 | | 1080p bober100 Скачать
1 | 0
Наши сериалы [ 9.44 GB ] Икра / Рыбное дело / Сезон: 1 / Серии: 1-8 из 8 | | 720p bober100 Скачать
1 | 0
Наши сериалы [ 5.18 GB ] Икра / Рыбное дело / Сезон: 1 / Серии: 1-8 из 8 | | DLRip-AVC bober100 Скачать
1 | 0
Наши сериалы [ 4.35 GB ] Икра / Рыбное дело / Сезон: 1 / Серии: 1-8 из 8 | | WEBRip bober100 Скачать
2 | 0
Наши сериалы [ 10.52 GB ] Икра / Рыбное дело / Сезон: 1 / Серии: 1-8 из 8 | | HDTVRip 720p bober100 Скачать
1 | 0
Наши сериалы [ 4.9 GB ] Икра / Серии: 1-8 из 8 | | SATRip-AVC aleksan55 Скачать
1 | 0
Наши сериалы [ 5.46 GB ] Икра / Серия 1-8 из 8 | | SATRip oleg8 Скачать
1 | 0

28-11-2019 20:33  

Отключить вcю реклaмy на сайте

    Дорогой пользователь! Огромная просьба, поблагодарите релизера, оцените раздачу и оставьте свои комментарий, если Вы скачали Икра через торрент бесплатно!!
    Комментировать посты могут только пользователи прошедшие не сложную регистрацию
    Показать сообщения:    


    Икра через торрент
    Скачать бесплатно Икра
    Икра скачать торрент
    Икра смотреть онлайн
    Cкачать фильм Икра бесплатно
    Икра скачать торрент в хорошем качестве
    Икра смотреть онлайн бесплатно в хорошем качестве
    Вы не можете начинать темы
    Вы не можете отвечать на сообщения
    Вы не можете редактировать свои сообщения
    Вы не можете удалять свои сообщения
    Вы не можете голосовать в опросах
    Вы не можете прикреплять файлы к сообщениям
    Вы можете скачивать файлы