Ссылка на приватное зеркало нашего сайта всего за 1$. Внимание количество ограничено!!!

2 сезон

iTunes

1 сезон

1

2 сезон

2 сезон

iTunes

1 сезон

RePack

30

Ultimate

ВАЖНО

ИГРА 18+

pack

RePack

MK11
pack

Забери бонус

RePack

jed

!!Акция!!

Alien_Rage

RePack

fifa19

RePack

Assassins Creed: Odyssey

RePack

NEED FOR SPEED™ PAYBACK

4 сезон

9 сезон

Бесстыжие 9 сезон

Все сериалы

все сериалы на PB.wtf

RePack

FAR CRY 5
  

Бойтесь ходячих мертвецов / Fear the Walking Dead / Сезон: 4 / Серии: 1-16 из 16 (Адам Дэвидсон, Кари Скогланд, Стефан Шварц) [2018, ужасы, драма, WEBRip] MVO [BaibaKo] pb.wtf

Бойтесь ходячих мертвецов через торрент pb.wtf

Размер: 9.81 GB | Добавлен: 2 года 1 мес. назад | Торрент скачан:16 раз
Скачать  

02-10-2018 10:59 Бойтесь ходячих мертвецов Скачать торрент  


Бойтесь ходячих мертвецов / Fear the Walking Dead
Год выпуска: 2018
Страна: США
Жанр: ужасы, драма
Продолжительность: ~ 00:45:00
Перевод: Профессиональный (многоголосый) | скриншот  
Субтитры: отсутствуют

Режиссер: Адам Дэвидсон, Кари Скогланд, Стефан Шварц

rating

В ролях:

Клифф Кёртис, Ким Диккенс, Алисия Дебнем-Кери, Фрэнк Диллэйн, Рубен Бладес, Мерседес Масон, Колман Доминго, Лоренцо Джеймс Хенри, Элизабет Родригес, Тони Френч

Описание:

Действия сериала происходят параллельно с событиями зомби-апокалипсиса, показанными в сериале «Ходячие мертвецы», но в совершенно другом месте — Лос-Анджелесе. Акцент будет сделан на семейные отношения, в частности, проблемы отцов и детей. История вращается вокруг Шона — разведённого школьного учителя и Нэнси руководительницы женского совета. А так же детей Нэнси: Ника, который борется с наркотической зависимостью и амбициозной дочери Эшли.

Качество: WEBRip
Формат: AVI

Видео: XviD, Advanced Simple@L5, 1500 Кбит/сек, 720x400 (1.778), 23,976 (24000/1001) кадра/сек
Аудио#1 ru: MPEG-1 Audio layer 3, 192 Кбит/сек, 2 канала, 48,0 КГц
Аудио#2 en: MPEG-1 Audio layer 3, 192 Кбит/сек, 2 канала, 48,0 КГц
скриншот   скриншот   скриншот   скриншот   скриншот  

Общее
Полное имя : D:\Fear.the.Walking.Dead.s04.WEBRip.XviD.Rus.Eng.BaibaKo.tv\Fear.the.Walking.Dead.s04e01.WEBRip.XviD.Rus.Eng.BaibaKo.tv.avi
Формат : AVI
Формат/Информация : Audio Video Interleave
Размер файла : 675 Мбайт
Продолжительность : 49 м. 53 с.
Общий поток : 1891 Кбит/сек

Видео
Идентификатор : 0
Формат : MPEG-4 Visual
Профиль формата : Advanced Simple@L5
Параметр BVOP формата : 2
Параметр QPel формата : Нет
Параметр GMC формата : Без точки перехода
Параметр матрицы формата : Default (H.263)
Идентификатор кодека : XVID
Идентификатор кодека/Подсказка : XviD
Продолжительность : 49 м. 53 с.
Битрейт : 1500 Кбит/сек
Ширина : 720 пикселей
Высота : 400 пикселей
Соотношение сторон : 16:9
Частота кадров : 23,976 кадра/сек
Цветовое пространство : YUV
Субдискретизация насыщенности : 4:2:0
Битовая глубина : 8 бит
Тип развёртки : Прогрессивная
Метод сжатия : С потерями
Бит/(Пиксели*Кадры) : 0.217
Размер потока : 535 Мбайт (79%)
Библиотека кодирования : XviD 67

Аудио #1
Идентификатор : 1
Формат : MPEG Audio
Версия формата : Version 1
Профиль формата : Layer 3
Режим : Joint stereo
Расширение режима : MS Stereo
Идентификатор кодека : 55
Идентификатор кодека/Подсказка : MP3
Продолжительность : 49 м. 53 с.
Вид битрейта : Постоянный
Битрейт : 192 Кбит/сек
Каналы : 2 канала
Частота : 48,0 КГц
Метод сжатия : С потерями
Размер потока : 68,5 Мбайт (10%)
Выравнивание : Соединение по промежуткам
Продолжительность промежутка : 167 мс. (4,00 видеокадра)
Время предзагрузки промежутка : 216 мс.
Заголовок : Fear.the.Walking.Dead.s04e01.HD1080p.WEBRip.Rus.Eng.BaibaKo.tv - [1][0] Russian_audio
Библиотека кодирования : LAME3.100є

Аудио #2
Идентификатор : 2
Формат : MPEG Audio
Версия формата : Version 1
Профиль формата : Layer 3
Режим : Joint stereo
Расширение режима : MS Stereo
Идентификатор кодека : 55
Идентификатор кодека/Подсказка : MP3
Продолжительность : 49 м. 53 с.
Вид битрейта : Постоянный
Битрейт : 192 Кбит/сек
Каналы : 2 канала
Частота : 48,0 КГц
Метод сжатия : С потерями
Размер потока : 68,5 Мбайт (10%)
Выравнивание : Соединение по промежуткам
Продолжительность промежутка : 167 мс. (4,00 видеокадра)
Время предзагрузки промежутка : 216 мс.
Заголовок : Fear.the.Walking.Dead.s04e01.HD1080p.WEBRip.Rus.Eng.BaibaKo.tv - [2][1] English_audio
Библиотека кодирования : LAME3.100є

pb.wtf



Скачать Бойтесь ходячих мертвецов через торрент http://i77.fastpic.ru/big/2016/0824/a5/ffb9522c251ca652fd736c3bc82fb9a5.png Скачать фильм Бойтесь ходячих мертвецов через торрент бесплантно в хорошем качестве Описание: Действия сериала происходят параллельно с событиями зомби-апокалипсиса, показанными в сериале «Ходячие мертвецы», но в совершенно ... 10 10 2
Торрент: Зарегистрирован [2018-10-02 10:59] · скачан: 16 раз
Статус: √ проверено
Размер: 9.81 GB
Как cкачать? Как скачать Бойтесь ходячих мертвецов через торрент | qTorrent

% Раздел Тема Автор DL S | L
Зарубежные сериалы [ 56.93 GB ] Бойтесь ходячих мертвецов / Fear the Walking Dead / Сезон: 4 / Серии: 1-16 из 16 [2018 WEBRip 1080p] MVO [BaibaKo] bober100 Скачать
1 | 0
Зарубежные сериалы [ 28.89 GB ] Бойтесь ходячих мертвецов / Fear the Walking Dead / Сезон: 4 / Серии: 1-16 из 16 [2018 WEBRip 720p] MVO [BaibaKo] bober100 Скачать
1 | 0
Зарубежные сериалы [ 18.68 GB ] Бойтесь ходячих мертвецов / Fear the Walking Dead / Сезон: 4 / Серии: 1-16 из 16 [2018 HDTVRip 720p] MVO [Jaskier] bober100 Скачать
1 | 0
Зарубежные сериалы [ 8.48 GB ] Бойтесь ходячих мертвецов / Fear the Walking Dead / Сезон: 4 / Серии: 1-16 из 16 [2018 HDTVRip] MVO [Jaskier] bober100 Скачать
1 | 0
Зарубежные сериалы [ 20.06 GB ] Бойтесь ходячих мертвецов / Fear the Walking Dead / Сезон: 4 / Серии: 1-16 из 16 [2018 HDTVRip 720p] MVO [ColdFilm] bober100 Скачать
1 | 0
Зарубежные сериалы [ 24.74 GB ] Бойтесь ходячих мертвецов / Fear the Walking Dead / Сезон: 4 / Серии: 1-16 из 16 [2018 WEB-DL 720p] MVO [NewStudio] bober100 Скачать
1 | 0
Зарубежные сериалы [ 8.77 GB ] Бойтесь ходячих мертвецов / Fear the Walking Dead / Сезон: 4 / Серии: 1-16 из 16 [2018 WEB-DLRip] MVO [NewStudio] bober100 Скачать
1 | 0

28-11-2019 20:33  

Отключить всю рекламу на сайте

07-10-2018 19:43 Бойтесь ходячих мертвецов Скачать торрент  

Не знаю как вам, но по моему мнению в конце очень много тупости, не считая стандартных тупняков этой франшизы, например "отличные перестрелки".pb.wtf



    Дорогой пользователь! Огромная просьба, поблагодарите релизера, оцените раздачу и оставьте свои комментарий, если Вы скачали Бойтесь ходячих мертвецов через торрент бесплатно! Внесите свою лепту в развитие PiratBit!
    Комментировать посты могут только пользователи прошедшие не сложную регистрацию
    Показать сообщения:    

    Бойтесь ходячих мертвецов через торрент
    Скачать бесплатно Бойтесь ходячих мертвецов
    Бойтесь ходячих мертвецов скачать торрент
    Бойтесь ходячих мертвецов смотреть онлайн
    Cкачать фильм Бойтесь ходячих мертвецов бесплатно
    Бойтесь ходячих мертвецов скачать торрент в хорошем качестве
    Бойтесь ходячих мертвецов смотреть онлайн бесплатно в хорошем качестве


    Вы не можете начинать темы
    Вы не можете отвечать на сообщения
    Вы не можете редактировать свои сообщения
    Вы не можете удалять свои сообщения
    Вы не можете голосовать в опросах
    Вы не можете прикреплять файлы к сообщениям
    Вы можете скачивать файлы