Доктор Стрэндж

Лицензия

Добыча

Дубляж

Дом дракона

1 сезон

Тор

Дубляж

В эфире

Дубляж

Там, где раки поют

MVO

Властелин колец

1 сезон

Ultimate

pack

Рекомендуем

30

Пиратка

ВАЖНО

ВАЖНО

Ghostwire

Пиратка

jed

RePack

nioh2

RePack

RDR2

RePack

NEED FOR SPEED™ PAYBACK

RePack

скачать торрент

Кинопоиск HD

Острые козырьки 6 сезон

6 сезон

FAR CRY 6

RePack

скачать торрент

Лицензия

скачать торрент

MVO

1

1 сезон

скачать торрент

1 сезон

скачать торрент

Лицензия

  

Икра / Рыбное дело / Сезон: 1 / Серии: 1-8 из 8 (Виталий Воробьёв) [2018, Детектив, WEBRip]

Икра через торрент pb.wtf

Размер: 4.35 GB | Добавлен: 4 года 1 мес. назад | Торрент скачан:80 раз
Смотреть онлайн | Скачать   

02-10-2018 11:28 Икра Скачать торрент  

Икра (Рыбное дело)
Год выпуска: 2018
Страна: Россия
Жанр: Детектив
Продолжительность: x ~ 00:45:00
Перевод: Не требуется
Субтитры: отсутствуют

Режиссер: Виталий Воробьёв



В ролях:

Павел Майков, Дарья Мороз, Игорь Скляр, Сергей Колтаков, Вильма Кутавичюте, Дмитрий Муляр, Андрей Смирнов, Дмитрий Астрахан, Анастасия Макеева, Юлия Рутберг, Владимир Щербаков, Дарья Носик, Станислав Стрелков

Описание:

1979 год. В приморском городе, в рыбном порту при загадочных обстоятельствах погибает следователь ОБХСС Михаил Федоров. Его лучший друг и коллега Александр Костенко узнаёт о том, что гибель Федорова не была несчастным случаем. Он было сам берется за расследование, но неожиданно без объяснения причин его отстраняют. В поисках справедливости, Костенко летит в Москву на приём к генеральному прокурору. В аэропорту Шереметьево он становится невольным свидетелем нелегального провоза крупной суммы в валюте. Бдительный Костенко инициирует задержание и арест “валютного курьера» - руководящего работника Министерства Рыбного Хозяйства Аркадия Липмана. Своей профессиональной хваткой, редкой принципиальностью и дотошностью Костенко привлекает внимание не только руководства Генеральной прокуратуры СССР, но партийных чиновников и руководства Минрыбхоза, имеющих непосредственное отношение к валютному скандалу…

Качество: WEBRip
Формат: AVI

Видео: XviD build 73, 704x400 (16:9), 25.000 fps, ~ 1350 Kbps (~ 0.190 bit/pixel)
Аудио: 48.0 kHz, MP3, 2/0 ch, 128 kbps
скриншот  скриншот  скриншот  скриншот  скриншот  

Общее
Полное имя : D:\Ikra.2017.XviD.WEBRip.GeneralFilm\Ikra.e01.avi
Формат : AVI
Формат/Информация : Audio Video Interleave
Размер файла : 557 Мбайт
Продолжительность : 51 м. 44 с.
Общий поток : 1504 Кбит/сек
Программа кодирования : VirtualDubMod 1.5.10.3 | www.virtualdub-fr.org || (build 2550/release)
Библиотека кодирования : VirtualDubMod build 2550/release

Видео
Идентификатор : 0
Формат : MPEG-4 Visual
Профиль формата : Advanced [email protected]
Параметр BVOP формата : 1
Параметр QPel формата : Нет
Параметр GMC формата : Без точки перехода
Параметр матрицы формата : Выборочная
Идентификатор кодека : XVID
Идентификатор кодека/Подсказка : XviD
Продолжительность : 51 м. 44 с.
Битрейт : 1366 Кбит/сек
Ширина : 704 пикселя
Высота : 400 пикселей
Соотношение сторон : 16:9
Частота кадров : 25,000 кадров/сек
Цветовое пространство : YUV
Субдискретизация насыщенности : 4:2:0
Битовая глубина : 8 бит
Тип развёртки : Прогрессивная
Метод сжатия : С потерями
Бит/(Пиксели*Кадры) : 0.194
Размер потока : 506 Мбайт (91%)
Библиотека кодирования : XviD 73

Аудио
Идентификатор : 1
Формат : MPEG Audio
Версия формата : Version 1
Профиль формата : Layer 3
Идентификатор кодека : 55
Идентификатор кодека/Подсказка : MP3
Продолжительность : 51 м. 44 с.
Вид битрейта : Постоянный
Битрейт : 128 Кбит/сек
Каналы : 2 канала
Частота : 48,0 КГц
Метод сжатия : С потерями
Размер потока : 47,4 Мбайт (9%)
Выравнивание : Соединение по промежуткам
Продолжительность промежутка : 40 мс. (1,00 видеокадр)
Время предзагрузки промежутка : 504 мс.
Библиотека кодирования : LAME3.99r
Настройки программы : -m s -V 4 -q 0 -lowpass 17 -b 128




Скачать Икра через торрент http://i103.fastpic.ru/big/2018/0129/d1/26b9958779fe2b956e0b8592d79790d1.jpg Скачать, смотреть онлайн Икра бесплантно в хорошем качестве Описание: 1979 год. В приморском городе, в рыбном порту при загадочных обстоятельствах погибает следователь ОБХСС Михаил Федоров. Его ... 10 10 5
Торрент: Зарегистрирован [2018-10-02 11:28] · скачан: 80 раз
Статус: √ проверено
Размер: 4.35 GB
Как cкачать? Как скачать Икра через торрент | UTorrent

% Раздел Тема Автор DL S | L
Наши сериалы [ 13.95 GB ] Икра / Рыбное дело / Сезон: 1 / Серии: 1-8 из 8 | | 1080p bober100 Скачать
1 | 0
Наши сериалы [ 9.44 GB ] Икра / Рыбное дело / Сезон: 1 / Серии: 1-8 из 8 | | 720p bober100 Скачать
1 | 0
Наши сериалы [ 5.18 GB ] Икра / Рыбное дело / Сезон: 1 / Серии: 1-8 из 8 | | DLRip-AVC bober100 Скачать
1 | 0
Наши сериалы [ 26.6 GB ] Икра / Рыбное дело / Сезон: 1 / Серии: 1-8 из 8 | | HDTV 1080i bober100 Скачать
1 | 0
Наши сериалы [ 10.52 GB ] Икра / Рыбное дело / Сезон: 1 / Серии: 1-8 из 8 | | HDTVRip 720p bober100 Скачать
1 | 0
Наши сериалы [ 4.9 GB ] Икра / Серии: 1-8 из 8 | | SATRip-AVC aleksan55 Скачать
1 | 0
Наши сериалы [ 5.46 GB ] Икра / Серия 1-8 из 8 | | SATRip oleg8 Скачать
1 | 0

28-11-2019 20:33  


Отключить вcю реклaмy на сайте, в т.ч. и в плеере онлайн просмотра!

    Дорогой пользователь! Огромная просьба, поблагодарите релизера, оцените раздачу и оставьте свои комментарий, если Вы скачали Икра через торрент бесплатно!!
    Комментировать посты могут только пользователи прошедшие не сложную регистрацию
    Показать сообщения:    


    Икра через торрент
    Скачать бесплатно Икра
    Икра скачать торрент
    Икра смотреть онлайн
    Cкачать фильм Икра бесплатно
    Икра скачать торрент в хорошем качестве
    Икра смотреть онлайн бесплатно в хорошем качестве
    Вы не можете начинать темы
    Вы не можете отвечать на сообщения
    Вы не можете редактировать свои сообщения
    Вы не можете удалять свои сообщения
    Вы не можете голосовать в опросах
    Вы не можете прикреплять файлы к сообщениям
    Вы можете скачивать файлы
    Икра / Рыбное дело / Сезон: 1 / Серии: 1-8 из 8 [2018, Детектив, WEBRip] смотреть онлайн, скачать торрент picoco.icu