Доктор Стрэндж

Лицензия

Добыча

Дубляж

Уэнсдэй

1 сезон

Тор

Дубляж

В эфире

Дубляж

Там, где раки поют

MVO

Властелин колец

1 сезон

Deluxe

pack

Рекомендуем

30

Пиратка

ВАЖНО

ВАЖНО

Ghostwire

Пиратка

jed

RePack

nioh2

RePack

RDR2

RePack

NEED FOR SPEED™ PAYBACK

RePack

скачать торрент

Кинопоиск HD

Острые козырьки 6 сезон

6 сезон

FAR CRY 6

RePack

скачать торрент

Лицензия

скачать торрент

MVO

1

1 сезон

скачать торрент

1 сезон

скачать торрент

Лицензия

  

Икра / Рыбное дело / Сезон: 1 / Серии: 1-8 из 8 (Виталий Воробьёв) [2018, Детектив, WEB-DL 720p]

Икра через торрент pb.wtf

Размер: 9.44 GB | Добавлен: 4 года 2 мес. назад | Торрент скачан:41 раз
Смотреть онлайн | Скачать   

02-10-2018 14:19 Икра Скачать торрент  

Икра (Рыбное дело)
Год выпуска: 2018
Страна: Россия
Жанр: Детектив
Продолжительность: x ~ 00:45:00
Перевод: Не требуется
Субтитры: отсутствуют

Режиссер: Виталий Воробьёв



В ролях:

Павел Майков, Дарья Мороз, Игорь Скляр, Сергей Колтаков, Вильма Кутавичюте, Дмитрий Муляр, Андрей Смирнов, Дмитрий Астрахан, Анастасия Макеева, Юлия Рутберг, Владимир Щербаков, Дарья Носик, Станислав Стрелков

Описание:

1979 год. В приморском городе, в рыбном порту при загадочных обстоятельствах погибает следователь ОБХСС Михаил Федоров. Его лучший друг и коллега Александр Костенко узнаёт о том, что гибель Федорова не была несчастным случаем. Он было сам берется за расследование, но неожиданно без объяснения причин его отстраняют. В поисках справедливости, Костенко летит в Москву на приём к генеральному прокурору. В аэропорту Шереметьево он становится невольным свидетелем нелегального провоза крупной суммы в валюте. Бдительный Костенко инициирует задержание и арест “валютного курьера» - руководящего работника Министерства Рыбного Хозяйства Аркадия Липмана. Своей профессиональной хваткой, редкой принципиальностью и дотошностью Костенко привлекает внимание не только руководства Генеральной прокуратуры СССР, но партийных чиновников и руководства Минрыбхоза, имеющих непосредственное отношение к валютному скандалу…

Качество: WEB-DL 720p
Формат: MKV

Видео: MPEG-4 AVC, ~ 3200 Кбит/с, 1280x720
Аудио: AC3, 2 ch, 192 Кбит/с
скриншот  скриншот  скриншот  скриншот  

Общее
Уникальный идентификатор : 226404863072911522287261575859062156923 (0xAA53FD93AEA34F02856DEA132B93AE7B)
Полное имя : D:\Ikra.2017.WEB-DL.720.25Kuzmich\Ikra.s01e01.WEB-DL.720.25Kuzmich.mkv
Формат : Matroska
Версия формата : Version 4 / Version 2
Размер файла : 1,18 Гбайт
Продолжительность : 51 м. 43 с.
Режим общего битрейта : Постоянный
Общий поток : 3268 Кбит/сек
Дата кодирования : UTC 2018-01-29 19:36:39
Программа кодирования : mkvmerge v9.4.0 ('Knurl') 32bit
Библиотека кодирования : libebml v1.3.4 + libmatroska v1.4.5

Видео
Идентификатор : 1
Формат : AVC
Формат/Информация : Advanced Video Codec
Профиль формата : [email protected]
Параметр CABAC формата : Да
Параметр RefFrames формата : 4 кадра
Идентификатор кодека : V_MPEG4/ISO/AVC
Продолжительность : 51 м. 43 с.
Вид битрейта : Постоянный
Битрейт : 3200 Кбит/сек
Ширина : 1280 пикселей
Высота : 720 пикселей
Соотношение сторон : 16:9
Режим частоты кадров : Постоянный
Частота кадров : 25,000 кадров/сек
Цветовое пространство : YUV
Субдискретизация насыщенности : 4:2:0
Битовая глубина : 8 бит
Тип развёртки : Прогрессивная
Бит/(Пиксели*Кадры) : 0.139
Размер потока : 1,11 Гбайт (94%)
Язык : Russian
Default : Да
Forced : Нет

Аудио
Идентификатор : 2
Формат : AC-3
Формат/Информация : Audio Coding 3
Расширение режима : CM (complete main)
Параметр Endianness формата : Big
Идентификатор кодека : A_AC3
Продолжительность : 51 м. 43 с.
Вид битрейта : Постоянный
Битрейт : 192 Кбит/сек
Каналы : 2 канала
Расположение каналов : Front: L R
Частота : 48,0 КГц
Частота кадров : 31,250 кадров/сек (1536 spf)
Метод сжатия : С потерями
Размер потока : 71,0 Мбайт (6%)
Язык : Russian
Default : Да
Forced : Нет




Скачать Икра через торрент http://i103.fastpic.ru/big/2018/0129/d1/26b9958779fe2b956e0b8592d79790d1.jpg Скачать, смотреть онлайн Икра бесплантно в хорошем качестве Описание: 1979 год. В приморском городе, в рыбном порту при загадочных обстоятельствах погибает следователь ОБХСС Михаил Федоров. Его ... 10 10 2
Торрент: Зарегистрирован [2018-10-02 14:19] · скачан: 41 раз
Статус: √ проверено
Размер: 9.44 GB
Как cкачать? Как скачать Икра через торрент | UTorrent

% Раздел Тема Автор DL S | L
Наши сериалы [ 13.95 GB ] Икра / Рыбное дело / Сезон: 1 / Серии: 1-8 из 8 | | 1080p bober100 Скачать
1 | 0
Наши сериалы [ 5.18 GB ] Икра / Рыбное дело / Сезон: 1 / Серии: 1-8 из 8 | | DLRip-AVC bober100 Скачать
1 | 0
Наши сериалы [ 4.35 GB ] Икра / Рыбное дело / Сезон: 1 / Серии: 1-8 из 8 | | WEBRip bober100 Скачать
2 | 0
Наши сериалы [ 26.6 GB ] Икра / Рыбное дело / Сезон: 1 / Серии: 1-8 из 8 | | HDTV 1080i bober100 Скачать
1 | 0
Наши сериалы [ 10.52 GB ] Икра / Рыбное дело / Сезон: 1 / Серии: 1-8 из 8 | | HDTVRip 720p bober100 Скачать
1 | 0
Наши сериалы [ 4.9 GB ] Икра / Серии: 1-8 из 8 | | SATRip-AVC aleksan55 Скачать
1 | 0
Наши сериалы [ 5.46 GB ] Икра / Серия 1-8 из 8 | | SATRip oleg8 Скачать
1 | 0

28-11-2019 20:33  


Отключить вcю реклaмy на сайте, в т.ч. и в плеере онлайн просмотра!

02-10-2018 14:48 Икра Скачать торрент  

фильм 2017 года, не чего врать)))



    Дорогой пользователь! Огромная просьба, поблагодарите релизера, оцените раздачу и оставьте свои комментарий, если Вы скачали Икра через торрент бесплатно!!
    Комментировать посты могут только пользователи прошедшие не сложную регистрацию
    Показать сообщения:    


    Икра через торрент
    Скачать бесплатно Икра
    Икра скачать торрент
    Икра смотреть онлайн
    Cкачать фильм Икра бесплатно
    Икра скачать торрент в хорошем качестве
    Икра смотреть онлайн бесплатно в хорошем качестве
    Вы не можете начинать темы
    Вы не можете отвечать на сообщения
    Вы не можете редактировать свои сообщения
    Вы не можете удалять свои сообщения
    Вы не можете голосовать в опросах
    Вы не можете прикреплять файлы к сообщениям
    Вы можете скачивать файлы
    Икра / Рыбное дело / Сезон: 1 / Серии: 1-8 из 8 [2018, Детектив, WEB-DL 720p] смотреть онлайн, скачать торрент picoco.icu