Доктор Стрэндж

Лицензия

Добыча

Дубляж

Уэнсдэй

1 сезон

Тор

Дубляж

В эфире

Дубляж

Там, где раки поют

MVO

Властелин колец

1 сезон

Deluxe

pack

Рекомендуем

30

Пиратка

ВАЖНО

ВАЖНО

Ghostwire

Пиратка

jed

RePack

nioh2

RePack

RDR2

RePack

NEED FOR SPEED™ PAYBACK

RePack

скачать торрент

Кинопоиск HD

Острые козырьки 6 сезон

6 сезон

FAR CRY 6

RePack

скачать торрент

Лицензия

скачать торрент

MVO

1

1 сезон

скачать торрент

1 сезон

скачать торрент

Лицензия

  

Икра / Рыбное дело / Сезон: 1 / Серии: 1-8 из 8 (Виталий Воробьёв) [2018, Детектив, WEB-DL 1080p]

Икра через торрент pb.wtf

Размер: 13.95 GB | Добавлен: 4 года 2 мес. назад | Торрент скачан:68 раз
Смотреть онлайн | Скачать   

02-10-2018 15:40 Икра Скачать торрент  

Икра (Рыбное дело)
Год выпуска: 2018
Страна: Россия
Жанр: Детектив
Продолжительность: x ~ 00:45:00
Перевод: Не требуется
Субтитры: отсутствуют

Режиссер: Виталий Воробьёв



В ролях:

Павел Майков, Дарья Мороз, Игорь Скляр, Сергей Колтаков, Вильма Кутавичюте, Дмитрий Муляр, Андрей Смирнов, Дмитрий Астрахан, Анастасия Макеева, Юлия Рутберг, Владимир Щербаков, Дарья Носик, Станислав Стрелков

Описание:

1979 год. В приморском городе, в рыбном порту при загадочных обстоятельствах погибает следователь ОБХСС Михаил Федоров. Его лучший друг и коллега Александр Костенко узнаёт о том, что гибель Федорова не была несчастным случаем. Он было сам берется за расследование, но неожиданно без объяснения причин его отстраняют. В поисках справедливости, Костенко летит в Москву на приём к генеральному прокурору. В аэропорту Шереметьево он становится невольным свидетелем нелегального провоза крупной суммы в валюте. Бдительный Костенко инициирует задержание и арест “валютного курьера» - руководящего работника Министерства Рыбного Хозяйства Аркадия Липмана. Своей профессиональной хваткой, редкой принципиальностью и дотошностью Костенко привлекает внимание не только руководства Генеральной прокуратуры СССР, но партийных чиновников и руководства Минрыбхоза, имеющих непосредственное отношение к валютному скандалу…

Качество: WEB-DL 1080p
Формат: MKV

Видео: MPEG-4 AVC, ~ 4571 Кбит/с, 1920x1080
Аудио: AC3, 2 ch, 192 Кбит/с
скриншот  скриншот  скриншот  скриншот  

Общее
Уникальный идентификатор : 200915894113697332257636151156406364035 (0x9726FE61A93F6819F490E63A38F22783)
Полное имя : D:\Ikra.2017.WEB-DL.1080.Files-x\01.Ikra.2017.WEB-DL.1080.Files-x.mkv
Формат : Matroska
Версия формата : Version 4 / Version 2
Размер файла : 1,75 Гбайт
Продолжительность : 51 м. 44 с.
Режим общего битрейта : Постоянный
Общий поток : 4829 Кбит/сек
Программа кодирования : Lavf56.25.101
Библиотека кодирования : Lavf56.25.101 / Lavf56.25.101

Видео
Идентификатор : 1
Формат : AVC
Формат/Информация : Advanced Video Codec
Профиль формата : [email protected]
Параметр CABAC формата : Да
Параметр RefFrames формата : 4 кадра
Идентификатор кодека : V_MPEG4/ISO/AVC
Продолжительность : 51 м. 44 с.
Вид битрейта : Постоянный
Битрейт : 4541 Кбит/сек
Номинальный битрейт : 4800 Кбит/сек / 4800 Кбит/сек
Ширина : 1920 пикселей
Высота : 1080 пикселей
Соотношение сторон : 16:9
Режим частоты кадров : Постоянный
Частота кадров : 25,000 кадров/сек
Цветовое пространство : YUV
Субдискретизация насыщенности : 4:2:0
Битовая глубина : 8 бит
Тип развёртки : Прогрессивная
Бит/(Пиксели*Кадры) : 0.088
Размер потока : 1,64 Гбайт (94%)
Библиотека кодирования : x264 core 148
Настройки программы : cabac=1 / ref=2 / deblock=1:0:0 / analyse=0x3:0x113 / me=hex / subme=6 / psy=1 / psy_rd=1.00:0.00 / mixed_ref=1 / me_range=16 / chroma_me=1 / trellis=1 / 8x8dct=1 / cqm=0 / deadzone=21,11 / fast_pskip=1 / chroma_qp_offset=-2 / threads=1 / lookahead_threads=1 / sliced_threads=0 / nr=0 / decimate=1 / interlaced=0 / bluray_compat=0 / constrained_intra=0 / bframes=3 / b_pyramid=2 / b_adapt=1 / b_bias=0 / direct=1 / weightb=1 / open_gop=0 / weightp=1 / keyint=250 / keyint_min=25 / scenecut=0 / intra_refresh=0 / rc_lookahead=30 / rc=cbr / mbtree=1 / bitrate=4800 / ratetol=1.0 / qcomp=0.60 / qpmin=0 / qpmax=69 / qpstep=4 / vbv_maxrate=4800 / vbv_bufsize=2400 / nal_hrd=cbr / filler=1 / ip_ratio=1.40 / aq=1:1.00
Default : Да
Forced : Нет

Аудио
Идентификатор : 2
Формат : AC-3
Формат/Информация : Audio Coding 3
Расширение режима : CM (complete main)
Параметр Endianness формата : Big
Идентификатор кодека : A_AC3
Продолжительность : 51 м. 44 с.
Вид битрейта : Постоянный
Битрейт : 192 Кбит/сек
Каналы : 2 канала
Расположение каналов : Front: L R
Частота : 48,0 КГц
Частота кадров : 31,250 кадров/сек (1536 spf)
Метод сжатия : С потерями
Задержка видео : -80 мс.
Размер потока : 71,0 Мбайт (4%)
Язык : English
Default : Да
Forced : Нет




Скачать Икра через торрент http://i103.fastpic.ru/big/2018/0129/d1/26b9958779fe2b956e0b8592d79790d1.jpg Скачать, смотреть онлайн Икра бесплантно в хорошем качестве Описание: 1979 год. В приморском городе, в рыбном порту при загадочных обстоятельствах погибает следователь ОБХСС Михаил Федоров. Его ... 10 10 4
Торрент: Зарегистрирован [2018-10-02 15:40] · скачан: 68 раз
Статус: √ проверено
Размер: 13.95 GB
Как cкачать? Как скачать Икра через торрент | UTorrent

% Раздел Тема Автор DL S | L
Наши сериалы [ 9.44 GB ] Икра / Рыбное дело / Сезон: 1 / Серии: 1-8 из 8 | | 720p bober100 Скачать
1 | 0
Наши сериалы [ 5.18 GB ] Икра / Рыбное дело / Сезон: 1 / Серии: 1-8 из 8 | | DLRip-AVC bober100 Скачать
1 | 0
Наши сериалы [ 4.35 GB ] Икра / Рыбное дело / Сезон: 1 / Серии: 1-8 из 8 | | WEBRip bober100 Скачать
1 | 0
Наши сериалы [ 26.6 GB ] Икра / Рыбное дело / Сезон: 1 / Серии: 1-8 из 8 | | HDTV 1080i bober100 Скачать
1 | 0
Наши сериалы [ 10.52 GB ] Икра / Рыбное дело / Сезон: 1 / Серии: 1-8 из 8 | | HDTVRip 720p bober100 Скачать
1 | 0
Наши сериалы [ 4.9 GB ] Икра / Серии: 1-8 из 8 | | SATRip-AVC aleksan55 Скачать
1 | 0
Наши сериалы [ 5.46 GB ] Икра / Серия 1-8 из 8 | | SATRip oleg8 Скачать
1 | 0

28-11-2019 20:33  


Отключить вcю реклaмy на сайте, в т.ч. и в плеере онлайн просмотра!

    Дорогой пользователь! Огромная просьба, поблагодарите релизера, оцените раздачу и оставьте свои комментарий, если Вы скачали Икра через торрент бесплатно!!
    Комментировать посты могут только пользователи прошедшие не сложную регистрацию
    Показать сообщения:    


    Икра через торрент
    Скачать бесплатно Икра
    Икра скачать торрент
    Икра смотреть онлайн
    Cкачать фильм Икра бесплатно
    Икра скачать торрент в хорошем качестве
    Икра смотреть онлайн бесплатно в хорошем качестве
    Вы не можете начинать темы
    Вы не можете отвечать на сообщения
    Вы не можете редактировать свои сообщения
    Вы не можете удалять свои сообщения
    Вы не можете голосовать в опросах
    Вы не можете прикреплять файлы к сообщениям
    Вы можете скачивать файлы
    Икра / Рыбное дело / Сезон: 1 / Серии: 1-8 из 8 [2018, Детектив, WEB-DL 1080p] смотреть онлайн, скачать торрент picoco.icu