1 сезон

1 сезон

iTunes

1

iTunes

Кинопоиск HD

iTunes

13

1 сезон

RePack

30

Deluxe

ВАЖНО

ИГРА 18+

pack

RePack

MK11
pack

Легкие деньги

RePack

jed

RePack

fifa19

RePack

RDR2

RePack

NEED FOR SPEED™ PAYBACK

4 сезон

9 сезон

Бесстыжие 9 сезон

Все сериалы

все сериалы на PB.wtf

RePack

FAR CRY 5
  
Magnet ссылка

Ловушка для одинокого мужчины (Алексей Коренев) [1990 г., Комедия, криминал, HDTVRip 720p] pb.wtf

Ловушка для одинокого мужчины через торрент pb.wtf

Размер: 3.29 GB | Добавлен: 2 года 7 мес. назад | Торрент скачан:36 раз
Скачать  

02-10-2018 17:20 Ловушка для одинокого мужчины Скачать торрент  

Ловушка для одинокого мужчины
Год выпуска: 1990
Страна: СССР
Жанр: Комедия, криминал
Продолжительность: 01:27:00
Субтитры: Отсутствуют

Режиссер: Алексей Коренев

rating

В ролях: Николай Караченцов, Юрий Яковлев, Ирина Шмелева, Вениамин Смехов, Иннокентий Смоктуновский, Елена Коренева, Сергей Мигицко, Валентин Смирнитский

Описание: Неожиданное исчезновение молодой жены вынудило главного героя обратиться в полицию. Комиссар начинает расследование, а тем временам местный кюре приводит к безутешному мужу якобы раскаявшуюся жену. Но Даниэль заявляет, что никогда прежде не видел эту женщину. Он подозревает в самозванке мошенницу, которая претендует на наследство, а в кюре — ее сообщника.

Качество: HDTVRip 720p
Формат: MKV
Видео кодек: H.264
Аудио кодек: AC3
Видео: H.264, 1024x720 , 25.0fps, 5106 Kbps
Аудио#1: AC3 , 2 ch , 48 kHz , 192 kbps
скриншот   скриншот   скриншот   скриншот  

Общее
Уникальный идентификатор : 211001232923416804599224156820529018127 (0x9EBD5BF9B51BFB98A8260C7EBF18F50F)
Полное имя : D:Ловушка для одинокого мужчины_1990-HDTVRip 720p_KORSAR.mkv
Формат : Matroska
Версия формата : Version 2
Размер файла : 3,29 Гбайт
Продолжительность : 1 ч. 27 м.
Общий поток : 5406 Кбит/сек
Название фильма : Ловушка для одинокого мужчины_1990-HDTVRip 720p_KORSAR
Дата кодирования : UTC 2018-09-19 22:37:20
Программа кодирования : mkvmerge v5.8.0 ('No Sleep / Pillow') built on Sep 2 2012 15:37:04
Библиотека кодирования : libebml v1.2.3 + libmatroska v1.3.0

Видео
Идентификатор : 1
Формат : AVC
Формат/Информация : Advanced Video Codec
Профиль формата : High@L4.1
Параметр CABAC формата : Да
Параметр RefFrames формата : 11 кадров
Идентификатор кодека : V_MPEG4/ISO/AVC
Продолжительность : 1 ч. 27 м.
Битрейт : 5106 Кбит/сек
Ширина : 1024 пикселя
Высота : 720 пикселей
Соотношение сторон : 1,422
Режим частоты кадров : Постоянный
Частота кадров : 25,000 кадров/сек
Цветовое пространство : YUV
Субдискретизация насыщенности : 4:2:0
Битовая глубина : 8 бит
Тип развёртки : Прогрессивная
Бит/(Пиксели*Кадры) : 0.277
Размер потока : 3,10 Гбайт (94%)
Библиотека кодирования : x264 core 152 r2851kMod ba24899
Настройки программы : cabac=1 / ref=11 / deblock=1:-2:-2 / analyse=0x3:0x113 / me=umh / subme=10 / psy=1 / fade_compensate=0.00 / psy_rd=1.05:0.10 / mixed_ref=1 / me_range=40 / chroma_me=1 / trellis=2 / 8x8dct=1 / cqm=0 / deadzone=21,11 / fast_pskip=1 / chroma_qp_offset=-3 / threads=12 / lookahead_threads=2 / sliced_threads=0 / nr=0 / decimate=1 / interlaced=0 / bluray_compat=0 / constrained_intra=0 / bframes=9 / b_pyramid=2 / b_adapt=2 / b_bias=0 / direct=1 / weightb=1 / open_gop=0 / weightp=2 / keyint=250 / keyint_min=25 / scenecut=40 / intra_refresh=0 / rc=crf / mbtree=0 / crf=18.0000 / qcomp=0.63 / qpmin=0 / qpmax=39 / qpstep=4 / ip_ratio=1.40 / pb_ratio=1.30 / aq=1:0.80
Язык : English
Default : Да
Forced : Нет
Цветовой диапазон : Limited
Основные цвета : BT.709
Характеристики трансфера : BT.709
Коэффициенты матрицы : BT.709

Аудио
Идентификатор : 2
Формат : AC-3
Формат/Информация : Audio Coding 3
Параметр Endianness формата : Big
Идентификатор кодека : A_AC3
Продолжительность : 1 ч. 27 м.
Вид битрейта : Постоянный
Битрейт : 192 Кбит/сек
Каналы : 2 канала
Расположение каналов : Front: L R
Частота : 48,0 КГц
Частота кадров : 31,250 кадров/сек (1536 SPF)
Битовая глубина : 16 бит
Метод сжатия : С потерями
Размер потока : 119 Мбайт (4%)
Язык : Russian
Default : Да
Forced : Нет

pb.wtf



Скачать Ловушка для одинокого мужчины через торрент https://pic1.kartinco.top/images/11/wkhfd.jpg Скачать фильм Ловушка для одинокого мужчины через торрент бесплантно в хорошем качестве Описание: Неожиданное исчезновение молодой жены вынудило главного героя обратиться в полицию. Комиссар начинает расследование, а тем ... 10 10 2
Info! Золотая раздача, скачанное не засчитывается.
Торрент: Зарегистрирован [2018-10-02 17:20] · скачан: 36 раз
Статус: √ проверено
Размер: 3.29 GB
Как cкачать? Как скачать Ловушка для одинокого мужчины через торрент | UTorrent

28-11-2019 20:33  

Отключить всю рекламу на сайте


02-10-2018 17:34 Ловушка для одинокого мужчины Скачать торрент  

Топик был перенесен из форума Кино СССР в форум Наши фильмы (HD, WEB-DL 720p, 1080p)


bober100pb.wtf



03-10-2018 02:13 Ловушка для одинокого мужчины Скачать торрент  

Топик был перенесен из форума Наши фильмы (HD, WEB-DL 720p, 1080p) в форум Кино СССР


schultzpb.wtf



    Дорогой пользователь! Огромная просьба, поблагодарите релизера, оцените раздачу и оставьте свои комментарий, если Вы скачали Ловушка для одинокого мужчины через торрент бесплатно! Внесите свою лепту в развитие PiratBit!
    Комментировать посты могут только пользователи прошедшие не сложную регистрацию
    Показать сообщения:    

    Ловушка для одинокого мужчины через торрент
    Скачать бесплатно Ловушка для одинокого мужчины
    Ловушка для одинокого мужчины скачать торрент
    Ловушка для одинокого мужчины смотреть онлайн
    Cкачать фильм Ловушка для одинокого мужчины бесплатно
    Ловушка для одинокого мужчины скачать торрент в хорошем качестве
    Ловушка для одинокого мужчины смотреть онлайн бесплатно в хорошем качестве


    Вы не можете начинать темы
    Вы не можете отвечать на сообщения
    Вы не можете редактировать свои сообщения
    Вы не можете удалять свои сообщения
    Вы не можете голосовать в опросах
    Вы не можете прикреплять файлы к сообщениям
    Вы можете скачивать файлы