Ссылка на приватное зеркало всего за 1$. Внимание количество ограничено!!!

OK

1+1

iTunes

мы

OK

1

WEB-DLRip

Джокер

Пифагор

Ведьмак / The Witcher сериал

iTunes

ПШазам

ОК

Оно 2

iTunes

30
pack

Вам бонус

ВАЖНО

!!Акция!!

Alien_RageХит недели

RePack

Resident Evil 21

ИГРА 18+

pack

RePack

jed

RePack

fifa19

RePack

Assassins Creed: Odyssey

RePack

NEED FOR SPEED™ PAYBACK

4 сезон

9 сезон

Бесстыжие 9 сезон

Все сериалы

все сериалы на PB.wtf

RePack

FAR CRY 5
  

Никто не хотел говорить / No One Would Tell (Гэйл Харви) [2018, драма, HDTVRip 720p] MVO ["Синема УС"] pb.wtf

Никто не хотел говорить через торрент pb.wtf

Размер: 2.92 GB | Добавлен: 1 год 3 мес. назад | Торрент скачан:16 раз
Скачать  

02-10-2018 18:55 Никто не хотел говорить Скачать торрент  

Никто не хотел говорить / No One Would TellГод выпуска: 2018
Страна: США
Жанр: драма
Продолжительность: 01:26:31
Перевод: Любительский (многоголосый) | "Синема УС"
Субтитры: отсутствуют

Режиссер: Гэйл Харви

rating

В ролях:

Мира Сорвино, Шэннен Доэрти, Оливер Махоро Смит, Эйвери Конрад, Лоуриза Тронку, Матрея Скаррвинер, Каллэн Поттер

Описание:

Когда старшеклассница Сара ответила взаимностью на чувства красавца Роба, она ещё не знала, что из-за его вспыльчивого нрава и молчаливого невмешательства окружающих их отношения закончатся ужасной трагедией.

Качество: HDTVRip 720p
Формат: MKV

Видео: h.264,4 442 kb/s, 1280x720
Аудио#1: Русский, (AC3, 2 ch, 384 Кбит/с)
скриншот  скриншот  скриншот  

Общее
Уникальный идентификатор : 215560812318334186819208067820607128705 (0xA22B809891E3E803807F001C1BA64481)
Полное имя : D:\No.One.Would.Tell.2018.P.HDTV.72Op_KOSHARA.mkv
Формат : Matroska
Версия формата : Version 2
Размер файла : 2,92 Гбайт
Продолжительность : 1 ч. 26 м.
Режим общего битрейта : Переменный
Общий поток : 4827 Кбит/сек
Дата кодирования : UTC 2018-09-22 10:31:00
Программа кодирования : mkvmerge v8.3.0 ('Over the Horizon') 64bit
Библиотека кодирования : libebml v1.3.1 + libmatroska v1.4.2

Видео
Идентификатор : 1
Формат : AVC
Формат/Информация : Advanced Video Codec
Профиль формата : High@L4.1
Параметр CABAC формата : Да
Параметр RefFrames формата : 4 кадра
Идентификатор кодека : V_MPEG4/ISO/AVC
Продолжительность : 1 ч. 26 м.
Вид битрейта : Переменный
Битрейт : 4442 Кбит/сек
Максимальный битрейт : 5000 Кбит/сек
Ширина : 1280 пикселей
Высота : 720 пикселей
Соотношение сторон : 16:9
Режим частоты кадров : Постоянный
Частота кадров : 23,976 (24000/1001) кадра/сек
Стандарт вещания : Component
Цветовое пространство : YUV
Субдискретизация насыщенности : 4:2:0
Битовая глубина : 8 бит
Тип развёртки : Прогрессивная
Бит/(Пиксели*Кадры) : 0.197
Размер потока : 2,63 Гбайт (90%)
Default : Да
Forced : Нет
Цветовой диапазон : Limited
Основные цвета : BT.709
Характеристики трансфера : BT.709
Коэффициенты матрицы : BT.709

Аудио
Идентификатор : 2
Формат : AC-3
Формат/Информация : Audio Coding 3
Расширение режима : CM (complete main)
Параметр Endianness формата : Big
Идентификатор кодека : A_AC3
Продолжительность : 1 ч. 26 м.
Вид битрейта : Постоянный
Битрейт : 384 Кбит/сек
Каналы : 2 канала
Расположение каналов : Front: L R
Частота : 48,0 КГц
Частота кадров : 31,250 кадров/сек (1536 spf)
Метод сжатия : С потерями
Размер потока : 238 Мбайт (8%)
Default : Да
Forced : Нет

pb.wtf



Скачать Никто не хотел говорить через торрент http://img11.lostpic.net/2018/10/02/f995e4d11e99a551fd0875a8d523a9f6.jpg Скачать фильм Никто не хотел говорить через торрент бесплантно в хорошем качестве Описание: Когда старшеклассница Сара ответила взаимностью на чувства красавца Роба, она ещё не знала, что из-за его вспыльчивого нрава и ... 10 10 3
Торрент: Зарегистрирован [2018-10-02 18:55] · скачан: 16 раз
Статус: T временная
Размер: 2.92 GB
Как cкачать? Как скачать Никто не хотел говорить через торрент | qTorrent

% Раздел Тема Автор DL S | L
T Фильмы (мультфильмы) cо спонсором показа (Новинки AVI/MKV) [ 1.37 GB ] Никто не хотел говорить / No One Would Tell [2018 HDTVRip] MVO ["Синема УС"] bober100 Скачать
1 | 0

28-11-2019 20:33  

Отключить всю рекламу на сайте

    Дорогой пользователь! Огромная просьба, поблагодарите релизера, оцените раздачу и оставьте свои комментарий, если Вы скачали Никто не хотел говорить через торрент бесплатно! Внесите свою лепту в развитие PiratBit!
    Комментировать посты могут только пользователи прошедшие не сложную регистрацию
    Показать сообщения:    

    Никто не хотел говорить через торрент
    Скачать бесплатно Никто не хотел говорить
    Никто не хотел говорить скачать торрент
    Никто не хотел говорить смотреть онлайн
    Cкачать фильм Никто не хотел говорить бесплатно
    Никто не хотел говорить скачать торрент в хорошем качестве
    Никто не хотел говорить смотреть онлайн бесплатно в хорошем качестве


    Вы не можете начинать темы
    Вы не можете отвечать на сообщения
    Вы не можете редактировать свои сообщения
    Вы не можете удалять свои сообщения
    Вы не можете голосовать в опросах
    Вы не можете прикреплять файлы к сообщениям
    Вы можете скачивать файлы