Ссылка на приватное зеркало нашего сайта всего за 1$. Внимание количество ограничено!!!

2 сезон

iTunes

1 сезон

1

2 сезон

2 сезон

iTunes

1 сезон

RePack

30

Ultimate

ВАЖНО

ИГРА 18+

pack

RePack

MK11
pack

Забери бонус

RePack

jed

!!Акция!!

Alien_Rage

RePack

fifa19

RePack

Assassins Creed: Odyssey

RePack

NEED FOR SPEED™ PAYBACK

4 сезон

9 сезон

Бесстыжие 9 сезон

Все сериалы

все сериалы на PB.wtf

RePack

FAR CRY 5
  

Восхождение пехотинца 3 / Rise of the Footsoldier 3 (Закари Адлер) [2017, боевик, комедия, криминал, BD Remux 1080р] AVO [А.Карповский] pb.wtf

Восхождение пехотинца 3 через торрент pb.wtf

Размер: 18.21 GB | Добавлен: 2 года 1 мес. назад | Торрент скачан:7 раз
Скачать  

02-10-2018 20:28 Восхождение пехотинца 3 Скачать торрент  

Восхождение пехотинца 3 / Rise of the Footsoldier 3
Год выпуска: 2017
Страна: Великобритания
Жанр: боевик, комедия, криминал
Продолжительность: 01:39:27
Перевод: Авторский (одноголосый закадровый) | Антон Карповский
Субтитры: английские

Режиссер: Закари Адлер

rating

В ролях:

Крэйг Фэйрбрасс, Терри Стоун, Роланд Манукян, Джэми Формен, Джош Майерс, Эдди Веббер, Йен Вирго, Энди Беквит, Шон Райдер, Лаура МакМонэйгл

Описание:

Фильм рассказывает криминальную биографию Пэта Тайта, одного из самых жестоких преступников Великобритании.

Качество: BD Remux 1080р
Формат: MKV

Видео: MPEG-4 AVC, 1920x1080 (16:9), 24.000 fps, 22000 kbps
Аудио#1: Русский DTS-HD MA 5.1, 48 kHz, 16 bit, 2125 kbps (DTS Core: 5.1 / 48 kHz / 1509 kbps / 16-bit)
Аудио#2: Английский DTS-HD MA 5.1, 48 kHz, 16 bit, 2048 kbps (DTS Core: 5.1 / 48 kHz / 1509 kbps / 16-bit)
скриншот  скриншот  скриншот  скриншот  

Общее
Уникальный идентификатор : 165839264135008707620755915581335922343 (0x7CC37B006D7BDB25922135F9F3C5E6A7)
Полное имя : Rise.of.the.Footsoldier.3.2017.BDRemux-ylnian.mkv
Формат : Matroska
Версия формата : Version 4 / Version 2
Размер файла : 18,2 Гбайт
Продолжительность : 1 ч. 39 м.
Режим общего битрейта : Переменный
Общий поток : 26,2 Мбит/сек
Название фильма : Rise of the Footsoldier 3 2017 BDRemux - ylnian
Дата кодирования : UTC 2018-05-14 17:45:31
Программа кодирования : mkvmerge v22.0.0 ('At The End Of The World') 64-bit
Библиотека кодирования : libebml v1.3.5 + libmatroska v1.4.8

Видео
Идентификатор : 1
Формат : AVC
Формат/Информация : Advanced Video Codec
Профиль формата : High@L4.1
Настройки формата : CABAC / 3 Ref Frames
Параметр CABAC формата : Да
Параметр RefFrames формата : 3 кадра
Параметр GOP формата : M=3, N=12
Идентификатор кодека : V_MPEG4/ISO/AVC
Продолжительность : 1 ч. 39 м.
Вид битрейта : Переменный
Битрейт : 22,0 Мбит/сек
Максимальный битрейт : 35,0 Мбит/сек
Ширина : 1920 пикселей
Высота : 1080 пикселей
Соотношение сторон : 16:9
Режим частоты кадров : Постоянный
Частота кадров : 24,000 кадра/сек
Стандарт вещания : NTSC
Цветовое пространство : YUV
Субдискретизация насыщенности : 4:2:0
Битовая глубина : 8 бит
Тип развёртки : Прогрессивная
Бит/(Пиксели*Кадры) : 0.442
Размер потока : 15,3 Гбайт (84%)
Заголовок : Rise.of.the.Footsoldier.3.2017.1080p.BluRay.REMUX.AVC.DTS-HD.MA.5.1-EPSiLON
Язык : English
Default : Да
Forced : Да
Цветовой диапазон : Limited
Основные цвета : BT.709
Характеристики трансфера : BT.709
Коэффициенты матрицы : BT.709

Аудио #1
Идентификатор : 2
Формат : DTS
Формат/Информация : Digital Theater Systems
Профиль формата : MA / Core
Идентификатор кодека : A_DTS
Продолжительность : 1 ч. 39 м.
Вид битрейта : Переменный / Постоянный
Битрейт : 2125 Кбит/сек / 1509 Кбит/сек
Каналы : 6 каналов
Расположение каналов : Front: L C R, Side: L R, LFE
Частота : 48,0 КГц
Частота кадров : 93,750 кадра/сек (512 SPF)
Битовая глубина : 16 бит
Метод сжатия : Без потерь / Lossy
Размер потока : 1,48 Гбайт (8%)
Заголовок : AVO (DTS-HD MA 5.1)
Язык : Russian
Default : Да
Forced : Да

Аудио #2
Идентификатор : 3
Формат : DTS
Формат/Информация : Digital Theater Systems
Профиль формата : MA / Core
Идентификатор кодека : A_DTS
Продолжительность : 1 ч. 39 м.
Вид битрейта : Переменный / Постоянный
Битрейт : 2048 Кбит/сек / 1509 Кбит/сек
Каналы : 6 каналов
Расположение каналов : Front: L C R, Side: L R, LFE
Частота : 48,0 КГц
Частота кадров : 93,750 кадра/сек (512 SPF)
Битовая глубина : 16 бит
Метод сжатия : Без потерь / Lossy
Размер потока : 1,45 Гбайт (8%)
Заголовок : DTS-HD MA 5.1
Язык : English
Default : Нет
Forced : Нет

Текст
Идентификатор : 4
Формат : UTF-8
Идентификатор кодека : S_TEXT/UTF8
Идентификатор кодека/Информация : UTF-8 Plain Text
Продолжительность : 1 ч. 34 м.
Битрейт : 75 бит/сек
ElementCount : 1423
Размер потока : 52,1 Кбайт (0%)
Заголовок : SDH
Язык : English
Default : Нет
Forced : Нет

Меню
00:00:00.000 : en:Chapter 1
00:16:25.042 : en:Chapter 2
00:32:44.583 : en:Chapter 3
00:51:00.125 : en:Chapter 4
01:07:05.375 : en:Chapter 5
01:22:27.625 : en:Chapter 6

pb.wtf



Скачать Восхождение пехотинца 3 через торрент https://i5.imageban.ru/out/2018/05/18/12efa859d2b839120ce09f4792202c3a.jpg Скачать фильм Восхождение пехотинца 3 через торрент бесплантно в хорошем качестве Описание: Фильм рассказывает криминальную биографию Пэта Тайта, одного из самых жестоких преступников ... 10 10 2
Торрент: Зарегистрирован [2018-10-02 20:28] · скачан: 7 раз
Статус: √ проверено
Размер: 18.21 GB
Как cкачать? Как скачать Восхождение пехотинца 3 через торрент | qTorrent

% Раздел Тема Автор DL S | L
# Фильмы (мультфильмы) cо спонсором показа (Новинки AVI/MKV) [ 4.41 GB ] Восхождение пехотинца 3 / Rise of the Footsoldier 3 [2017 BDRip 720p] MVO ["Синема УС"] bober100 Скачать
1 | 0
T Фильмы (мультфильмы) cо спонсором показа (Новинки AVI/MKV) [ 1.46 GB ] Восхождение пехотинца 3 / Rise of the Footsoldier 3 [2017 HDRip] MVO ["Синема УС"] bober100 Скачать
1 | 0

28-11-2019 20:33  

Отключить всю рекламу на сайте

    Дорогой пользователь! Огромная просьба, поблагодарите релизера, оцените раздачу и оставьте свои комментарий, если Вы скачали Восхождение пехотинца 3 через торрент бесплатно! Внесите свою лепту в развитие PiratBit!
    Комментировать посты могут только пользователи прошедшие не сложную регистрацию
    Показать сообщения:    

    Восхождение пехотинца 3 через торрент
    Скачать бесплатно Восхождение пехотинца 3
    Восхождение пехотинца 3 скачать торрент
    Восхождение пехотинца 3 смотреть онлайн
    Cкачать фильм Восхождение пехотинца 3 бесплатно
    Восхождение пехотинца 3 скачать торрент в хорошем качестве
    Восхождение пехотинца 3 смотреть онлайн бесплатно в хорошем качестве


    Вы не можете начинать темы
    Вы не можете отвечать на сообщения
    Вы не можете редактировать свои сообщения
    Вы не можете удалять свои сообщения
    Вы не можете голосовать в опросах
    Вы не можете прикреплять файлы к сообщениям
    Вы можете скачивать файлы