Всегда рабочее зеркало без VPN и Proxy просто перед .vidak.icu напиши любое слово или цифру, Пример http://h9rw.vidak.icu

MVO

MVO

1 сезон

1

1 сезон

iTunes

1 сезон

13

1 сезон

Deluxe

pack

Рекомендуем

Repack

30

ВАЖНО

RePack

MK11

RePack

jed

RePack

fifa19

RePack

RDR2

RePack

NEED FOR SPEED™ PAYBACK

Кинопоиск HD

6 сезон

 Острые козырьки 6 сезон

Все сериалы

все сериалы на PB.wtf

RePack

FAR CRY 5
  
Magnet ссылка

Двойной форсаж / 2 Fast 2 Furious (Джон Синглтон) [2003, боевик, триллер, криминал, UHD BDRemux 2160p] DUB + 2xMVO + AVO + DVO pb.wtf

Двойной форсаж через торрент pb.wtf

Размер: 54.31 GB | Добавлен: 3 года 10 мес. назад | Торрент скачан:61 раз
Смотреть онлайн Двойной форсаж | Скачать    Ребята, помогите собрать деньги на оплату серверов!!!

03-10-2018 03:18 Двойной форсаж Скачать торрент  

Двойной форсаж / 2 Fast 2 Furious«Какую скорость ты выдержишь?»
Год выпуска: 2003
Страна: США, Германия
Жанр: боевик, триллер, криминал
Продолжительность: 01:47:35
Перевод: Дублированный, профессиональный многоголосый, профессиональный двухголосый, авторский
Субтитры: Русские, английские, испанские, французские, португальские
Режиссер: Джон Синглтон
В ролях:

Пол Уокер (Brian O'Conner), Тайриз Гибсон (Roman Pearce), Ева Мендес (Monica Fuentes), Коул Хаузер (Carter Verone), Лудакрис (Tej), Том Бэрри (Agent Bilkins), Джеймс Римар (Agent Markham), Девон Аоки (Suki), Мэтт Галлини (Enrique), Роберто «Санс» Санчес (Roberto), Амори Ноласко (Orange Julius), Майкл Или (Slap Jack)
Описание:
Бывший полицейский Брайан О`Коннер вместе с напарником Романом Пирсом собираются перевезти крупную сумму «грязных» денег известного мафиози Картера Верона в качестве его подручных. Но на самом деле эта работа является только прикрытием для Брайана, который вместе с тайным агентом Моникой Фуэнтес должны уличить изворотливого преступника...
Рейтинг:

MPAA: PG-13 - Детям до 13 лет просмотр не желателен
Качество: UHD BDRemux 2160p
Формат: MKV
Видео: HEVC HDR, 62.9 Mбит/с, 3840x2160, 23.976 кадр/с
Аудио: Russian DTS, 48khz, 6ch, 768 Kb/s-[Dub, Blu-ray CEE]
Аудио: Russian DTS, 48khz, 6ch, 1510 Kb/s-[профессиональный двухголосый]
Аудио: Russian AC3, 48khz, 6ch, 448 kbps-[профессиональный многоголосый]
Аудио: Russian AC3, 48khz, 6ch, 448 kbps-[профессиональный многоголосый]
Аудио: Russian DTS, 48khz, 6ch, 1509 Kb/s-[Авторский-Гаврилов ]
Аудио: Ukrainian AC3, 48khz, 2ch, 192 kbps-[профессиональный многоголосый, ICTV]
Аудио: English DTS-HD MA, 48khz, 8ch, 4214 Kbps-[Original]
Аудио: English AC3, 48khz, 2ch, 192 kbps-Commentary
Навигация по главам: есть
Complete name : D:\Movies\2.Fast.2.Furious.2003.2160p.BluRay.REMUX.HEVC.DTS-X.7.1-SpaceHD13.mkv
Format : Matroska
Format version : Version 4 / Version 2
File size : 54.3 GiB
Duration : 1 h 47 min
Overall bit rate mode : Variable
Overall bit rate : 72.2 Mb/s
Movie name : UHD 2160 || Release by SpaceHD13
Encoded date : UTC 2018-10-02 17:32:16
Writing application : mkvmerge v27.0.0 ('Metropolis') 64-bit
Writing library : libebml v1.3.6 + libmatroska v1.4.9
Cover : Yes
Attachments : cover.jpg

Video
ID : 1
Format : HEVC
Format/Info : High Efficiency Video Coding
Commercial name : HDR10
Format profile : Main [email protected]@High
Codec ID : V_MPEGH/ISO/HEVC
Duration : 1 h 47 min
Bit rate : 62.9 Mb/s
Width : 3 840 pixels
Height : 2 160 pixels
Display aspect ratio : 16:9
Frame rate mode : Constant
Frame rate : 23.976 (24000/1001) FPS
Color space : YUV
Chroma subsampling : 4:2:0 (Type 2)
Bit depth : 10 bits
Bits/(Pixel*Frame) : 0.316
Stream size : 47.2 GiB (87%)
Title : 2.Fast.2.Furious.2003.2160p.BluRay.REMUX.HEVC.DTS-X.7.1-SpaceHD13
Writing library : ATEME Titan File 3.8.16 (4.8.16.0)
Default : Yes
Forced : No
Color range : Limited
Color primaries : BT.2020
Transfer characteristics : PQ
Matrix coefficients : BT.2020 non-constant
Mastering display color pri : Display P3
Mastering display luminance : min: 0.0050 cd/m2, max: 1000 cd/m2
Maximum Content Light Level : 1000 cd/m2
Maximum Frame-Average Light : 200 cd/m2

Audio #1
ID : 2
Format : DTS
Format/Info : Digital Theater Systems
Codec ID : A_DTS
Duration : 1 h 47 min
Bit rate mode : Constant
Bit rate : 768 kb/s
Channel(s) : 6 channels
Channel layout : C L R Ls Rs LFE
Sampling rate : 48.0 kHz
Frame rate : 93.750 FPS (512 SPF)
Bit depth : 24 bits
Compression mode : Lossy
Stream size : 591 MiB (1%)
Title : 2.Fast.2.Furious.2003.2160p.BluRay.REMUX.HEVC.DTS-X.7.1-SpaceHD13[Dub, Blu-ray CEE]
Language : Russian
Default : No
Forced : No

Audio #2
ID : 3
Format : DTS
Format/Info : Digital Theater Systems
Codec ID : A_DTS
Duration : 1 h 47 min
Bit rate mode : Constant
Bit rate : 1 510 kb/s
Channel(s) : 6 channels
Channel layout : C L R Ls Rs LFE
Sampling rate : 48.0 kHz
Frame rate : 93.750 FPS (512 SPF)
Bit depth : 24 bits
Compression mode : Lossy
Stream size : 1.13 GiB (2%)
Title : 2.Fast.2.Furious.2003.2160p.BluRay.REMUX.HEVC.DTS-X.7.1-SpaceHD13[DVO]
Language : Russian
Default : No
Forced : No

Audio #3
ID : 4
Format : AC-3
Format/Info : Audio Coding 3
Commercial name : Dolby Digital
Codec ID : A_AC3
Duration : 1 h 47 min
Bit rate mode : Constant
Bit rate : 448 kb/s
Channel(s) : 6 channels
Channel layout : L R C LFE Ls Rs
Sampling rate : 48.0 kHz
Frame rate : 31.250 FPS (1536 SPF)
Bit depth : 16 bits
Compression mode : Lossy
Stream size : 345 MiB (1%)
Title : 2.Fast.2.Furious.2003.2160p.BluRay.REMUX.HEVC.DTS-X.7.1-SpaceHD13[MVO]
Language : Russian
Service kind : Complete Main
Default : No
Forced : No

Audio #4
ID : 5
Format : AC-3
Format/Info : Audio Coding 3
Commercial name : Dolby Digital
Codec ID : A_AC3
Duration : 1 h 47 min
Bit rate mode : Constant
Bit rate : 448 kb/s
Channel(s) : 6 channels
Channel layout : L R C LFE Ls Rs
Sampling rate : 48.0 kHz
Frame rate : 31.250 FPS (1536 SPF)
Bit depth : 16 bits
Compression mode : Lossy
Stream size : 345 MiB (1%)
Title : 2.Fast.2.Furious.2003.2160p.BluRay.REMUX.HEVC.DTS-X.7.1-SpaceHD13[MVO]
Language : Russian
Service kind : Complete Main
Default : No
Forced : No

Audio #5
ID : 6
Format : DTS
Format/Info : Digital Theater Systems
Codec ID : A_DTS
Duration : 1 h 47 min
Bit rate mode : Constant
Bit rate : 1 509 kb/s
Channel(s) : 6 channels
Channel layout : C L R Ls Rs LFE
Sampling rate : 48.0 kHz
Frame rate : 93.750 FPS (512 SPF)
Bit depth : 24 bits
Compression mode : Lossy
Stream size : 1.14 GiB (2%)
Title : 2.Fast.2.Furious.2003.2160p.BluRay.REMUX.HEVC.DTS-X.7.1-SpaceHD13[VO, Гаврилов]
Language : Russian
Default : No
Forced : No

Audio #6
ID : 7
Format : AC-3
Format/Info : Audio Coding 3
Commercial name : Dolby Digital
Codec ID : A_AC3
Duration : 1 h 47 min
Bit rate mode : Constant
Bit rate : 192 kb/s
Channel(s) : 2 channels
Channel layout : L R
Sampling rate : 48.0 kHz
Frame rate : 31.250 FPS (1536 SPF)
Bit depth : 16 bits
Compression mode : Lossy
Stream size : 148 MiB (0%)
Title : 2.Fast.2.Furious.2003.2160p.BluRay.REMUX.HEVC.DTS-X.7.1-SpaceHD13[MVO, ICTV]
Language : Ukrainian
Service kind : Complete Main
Default : No
Forced : No

Audio #7
ID : 8
Format : DTS XLL X
Format/Info : Digital Theater Systems
Commercial name : DTS-HD Master Audio
Codec ID : A_DTS
Duration : 1 h 47 min
Bit rate mode : Variable
Bit rate : 4 214 kb/s
Channel(s) : 8 channels
Channel(s)_Original : Object Based
Channel layout : Object Based
Sampling rate : 48.0 kHz
Frame rate : 93.750 FPS (512 SPF)
Bit depth : 24 bits
Stream size : 3.17 GiB (6%)
Title : 2.Fast.2.Furious.2003.2160p.BluRay.REMUX.HEVC.DTS-X.7.1-SpaceHD13
Language : English
Default : Yes
Forced : No

Audio #8
ID : 9
Format : AC-3
Format/Info : Audio Coding 3
Commercial name : Dolby Digital
Codec ID : A_AC3
Duration : 1 h 47 min
Bit rate mode : Constant
Bit rate : 192 kb/s
Channel(s) : 2 channels
Channel layout : L R
Sampling rate : 48.0 kHz
Frame rate : 31.250 FPS (1536 SPF)
Bit depth : 16 bits
Compression mode : Lossy
Stream size : 148 MiB (0%)
Title : 2.Fast.2.Furious.2003.2160p.BluRay.REMUX.HEVC.DTS-X.7.1-SpaceHD13
Language : English
Service kind : Complete Main
Default : No
Forced : No

Text #1
ID : 10
Format : PGS
Muxing mode : zlib
Codec ID : S_HDMV/PGS
Codec ID/Info : Picture based subtitle format used on BDs/HD-DVDs
Duration : 1 h 40 min
Bit rate : 37.2 kb/s
Count of elements : 2614
Stream size : 26.7 MiB (0%)
Title : English-PGS
Language : English
Default : Yes
Forced : No

Text #2
ID : 11
Format : PGS
Muxing mode : zlib
Codec ID : S_HDMV/PGS
Codec ID/Info : Picture based subtitle format used on BDs/HD-DVDs
Duration : 1 h 39 min
Bit rate : 30.0 kb/s
Count of elements : 2170
Stream size : 21.4 MiB (0%)
Title : French-PGS
Language : French
Default : No
Forced : No

Text #3
ID : 12
Format : PGS
Muxing mode : zlib
Codec ID : S_HDMV/PGS
Codec ID/Info : Picture based subtitle format used on BDs/HD-DVDs
Duration : 1 h 39 min
Bit rate : 28.8 kb/s
Count of elements : 2172
Stream size : 20.5 MiB (0%)
Title : Spanish-PGS
Language : Spanish
Default : No
Forced : No

Text #4
ID : 13
Format : PGS
Muxing mode : zlib
Codec ID : S_HDMV/PGS
Codec ID/Info : Picture based subtitle format used on BDs/HD-DVDs
Duration : 1 h 39 min
Bit rate : 26.5 kb/s
Count of elements : 2166
Stream size : 18.9 MiB (0%)
Title : Portuguese-PGS
Language : Portuguese
Default : No
Forced : No

Text #5
ID : 14
Format : PGS
Muxing mode : zlib
Codec ID : S_HDMV/PGS
Codec ID/Info : Picture based subtitle format used on BDs/HD-DVDs
Duration : 1 h 42 min
Bit rate : 62.8 kb/s
Count of elements : 3280
Stream size : 46.1 MiB (0%)
Title : English-COMMENTARY-PGS
Language : English
Default : No
Forced : No

Text #6
ID : 15
Format : PGS
Muxing mode : zlib
Codec ID : S_HDMV/PGS
Codec ID/Info : Picture based subtitle format used on BDs/HD-DVDs
Duration : 1 h 42 min
Bit rate : 59.9 kb/s
Count of elements : 3279
Stream size : 44.0 MiB (0%)
Title : Spanish-COMMENTARY-PGS
Language : Spanish
Default : No
Forced : No

Text #7
ID : 16
Format : PGS
Muxing mode : zlib
Codec ID : S_HDMV/PGS
Codec ID/Info : Picture based subtitle format used on BDs/HD-DVDs
Duration : 1 h 42 min
Bit rate : 57.7 kb/s
Count of elements : 3281
Stream size : 42.4 MiB (0%)
Title : Portuguese-COMMENTARY-PGS
Language : Portuguese
Default : No
Forced : No

Text #8
ID : 17
Format : PGS
Muxing mode : zlib
Codec ID : S_HDMV/PGS
Codec ID/Info : Picture based subtitle format used on BDs/HD-DVDs
Duration : 1 h 36 min
Bit rate : 197 b/s
Count of elements : 16
Stream size : 140 KiB (0%)
Title : French-FORCED-PGS
Language : French
Default : No
Forced : No

Text #9
ID : 18
Format : PGS
Muxing mode : zlib
Codec ID : S_HDMV/PGS
Codec ID/Info : Picture based subtitle format used on BDs/HD-DVDs
Duration : 1 h 36 min
Bit rate : 195 b/s
Count of elements : 18
Stream size : 139 KiB (0%)
Title : Spanish-FORCED-PGS
Language : Spanish
Default : No
Forced : No

Text #10
ID : 19
Format : PGS
Muxing mode : zlib
Codec ID : S_HDMV/PGS
Codec ID/Info : Picture based subtitle format used on BDs/HD-DVDs
Duration : 1 h 36 min
Bit rate : 172 b/s
Count of elements : 16
Stream size : 123 KiB (0%)
Title : Portuguese-FORCED-PGS
Language : Portuguese
Default : No
Forced : No

Text #11
ID : 20
Format : PGS
Muxing mode : zlib
Codec ID : S_HDMV/PGS
Codec ID/Info : Picture based subtitle format used on BDs/HD-DVDs
Duration : 1 h 36 min
Bit rate : 394 b/s
Count of elements : 20
Stream size : 280 KiB (0%)
Title : captions-PGS
Language : Russian
Default : No
Forced : No

Text #12
ID : 21
Format : PGS
Muxing mode : zlib
Codec ID : S_HDMV/PGS
Codec ID/Info : Picture based subtitle format used on BDs/HD-DVDs
Duration : 1 h 39 min
Bit rate : 42.8 kb/s
Count of elements : 2138
Stream size : 30.5 MiB (0%)
Title : Russian-PGS
Language : Russian
Default : No
Forced : No

Text #13
ID : 22
Format : PGS
Muxing mode : zlib
Codec ID : S_HDMV/PGS
Codec ID/Info : Picture based subtitle format used on BDs/HD-DVDs
Duration : 1 h 39 min
Bit rate : 38.5 kb/s
Count of elements : 1908
Stream size : 27.5 MiB (0%)
Title : Radegast-PGS
Language : Russian
Default : No
Forced : No

Text #14
ID : 23
Format : UTF-8
Codec ID : S_TEXT/UTF8
Codec ID/Info : UTF-8 Plain Text
Duration : 1 h 40 min
Bit rate : 75 b/s
Count of elements : 1087
Stream size : 55.4 KiB (0%)
Title : Russian-SRT
Language : Russian
Default : No
Forced : No

Text #15
ID : 24
Format : UTF-8
Codec ID : S_TEXT/UTF8
Codec ID/Info : UTF-8 Plain Text
Duration : 1 h 38 min
Bit rate : 162 b/s
Count of elements : 1641
Stream size : 117 KiB (0%)
Title : Russian-COMMENTARY-PGS
Language : Russian
Default : No
Forced : No

Menu
00:00:00.000 : :Chapter 1
00:11:28.688 : :Chapter 2
00:14:19.817 : :Chapter 3
00:16:01.627 : :Chapter 4
00:18:56.343 : :Chapter 5
00:24:22.544 : :Chapter 6
00:28:15.819 : :Chapter 7
00:35:13.152 : :Chapter 8
00:40:07.321 : :Chapter 9
00:46:43.383 : :Chapter 10
00:58:54.113 : :Chapter 11
01:05:02.189 : :Chapter 12
01:10:24.303 : :Chapter 13
01:13:37.037 : :Chapter 14
01:22:14.638 : :Chapter 15
01:29:53.137 : :Chapter 16
01:35:16.627 : :Chapter 17
01:37:31.971 : :Chapter 18
01:40:32.026 : :Chapter 19
pb.wtf



Скачать Двойной форсаж через торрент https://b.radikal.ru/b16/1810/38/07b556d9da74.png Скачать, смотреть онлайн Двойной форсаж бесплантно в хорошем качестве Описание: Бывший полицейский Брайан О`Коннер вместе с напарником Романом Пирсом собираются перевезти крупную сумму «грязных» денег ... 10 10 1
Торрент: Зарегистрирован [2018-10-03 03:18] · скачан: 61 раз
Статус: √ проверено
Размер: 54.31 GB
Как cкачать? Как скачать Двойной форсаж через торрент | UTorrent

% Раздел Тема Автор DL S | L
Ultra HD (UHD: 2K, 4K, 8K) — видео сверхвысокой чёткости [ 26.24 GB ] Двойной форсаж / 2 Fast 2 Furious [2003 UHD BDRip 2160p] DUB + 2xMVO + AVO + DVO sheker187 Скачать
1 | 0

28-11-2019 20:33  

Отключить вcю реклaмy на сайте

    Дорогой пользователь! Огромная просьба, поблагодарите релизера, оцените раздачу и оставьте свои комментарий, если Вы скачали Двойной форсаж через торрент бесплатно!
    Комментировать посты могут только пользователи прошедшие не сложную регистрацию
    Показать сообщения:    

    Двойной форсаж через торрент
    Скачать бесплатно Двойной форсаж
    Двойной форсаж скачать торрент
    Двойной форсаж смотреть онлайн
    Cкачать фильм Двойной форсаж бесплатно
    Двойной форсаж скачать торрент в хорошем качестве
    Двойной форсаж смотреть онлайн бесплатно в хорошем качестве


    Вы не можете начинать темы
    Вы не можете отвечать на сообщения
    Вы не можете редактировать свои сообщения
    Вы не можете удалять свои сообщения
    Вы не можете голосовать в опросах
    Вы не можете прикреплять файлы к сообщениям
    Вы можете скачивать файлы