новый адрес пиратбит piratbit
Мега распродажа FORZA HORIZON 4 ULTIMATE+ВСЕ DLC+ОНЛАЙН всего за 499р. 349 руб. (супер цена). Внимание количество ограничено!!!

iTunes

1+1

iTunes

мы

iTunes

1

iTunes

Чернобыль

iTunes

Ральф против интернета

Лицензия

ПШазам

Лицензия

Игра престолов

Лицензия

30
pack

ВАЖНО

!!Акция!!

Alien_RageХит недели

RePack

Resident Evil 21

ИГРА 18+

pack

RePack

Metro:Exodus

!!Акция!!

Alien_Rage

RePack

fifa19

RePack

Assassins Creed: Odyssey

RePack

NEED FOR SPEED™ PAYBACK

3 сезон

9 сезон

Бесстыжие 9 сезон

Все сериалы

все сериалы на PB.wtf

RePack

FAR CRY 5
Ребята, катастрофически не хватает 1900р. для оплаты серверов за Октябрь (всвязи с блокировками трафик упал в 3 раза), 1-2р., выручайте.
  

Девять дней одного года (Михаил Ромм) [1962, СССР, драма, DVDRip от AVP Studio] pb.wtf

Девять дней одного года через торрент pb.wtf

Размер: 1.46 GB | Добавлен: 1 год 1 мес. назад | Торрент скачан:9 раз
Скачать  

03-10-2018 08:16 Девять дней одного года Скачать торрент  

Девять дней одного года
Страна: СССР
Производство: Мосфильм

Жанр: драма
Год выпуска: 1961
Продолжительность: 01:44:18

Перевод: Не требуется
Cубтитры: нет
Оригинальная аудиодорожка: русский

Режиссер: Михаил Ромм

В ролях:
Алексей Баталов, Иннокентий Смоктуновский, Татьяна Лаврова, Николай Плотников, Сергей Блинников, Евгений Евстигнеев, Михаил Козаков, Николай Граббе, Валентин Никулин, Павел Шпрингфельд, Александр Пелевин, Евгений Тетерин, Николай Сергеев, Ада Войцик, Валентина Беляева, Люсьена Овчинникова, Юрий Киреев, Борис Яшин, Игорь Добролюбов, Андрей Смирнов, Анна Павлова (IV), Резо Эсадзе, Георгий Епифанцев, Лев Дуров, Наталья Батырева, Зоя Василькова, Игорь Ясулович, Юрий Смирнов...
Об актёрах подробней

Описание:
Действие киноповести происходит в 60-е годы ХХ столетия. Молодые ученые-ядерщики, одержимый экспериментатор Гусев (Алексей Баталов) и скептически настроенный физик-теоретик Куликов (Иннокентий Смоктуновский), — давние друзья, влюблённые в одну девушку по имени Лёля (Татьяна Лаврова). Физик-атомщик Гусев возглавляет научные изыскания, начатые его учителем Синцовым (Николай Плотников), который в результате эксперимента получил смертельную дозу радиации. Облучён и Гусев

Источник: DVD9 R5
Качество видео: DVDRip
Формат видео: AVI

Видео: 704х528 (4:3), 25 fps, XviD ~ 1546 kbps avg, 0.166 bit/pixel
Аудио: 48 kHz, Dolby Digital AC3 5.1, 448 kbps

Раздача от:
Общее
Полное имя : Devyat.dney.odnogo.goda.1961.DVDRip_[New-team]_by_AVP_Studio.avi
Формат : AVI
Формат/Информация : Audio Video Interleave
Размер файла : 1,46 Гбайт
Продолжительность : 1 ч. 44 м.
Общий поток : 2003 Кбит/сек
Программа кодирования : VirtualDubMod 1.5.10.3 | www.virtualdub-fr.org || (build 2550/release)
Библиотека кодирования : VirtualDubMod build 2550/release

Видео
Идентификатор : 0
Формат : MPEG-4 Visual
Профиль формата : Advanced Simple@L5
Настройки формата : BVOP1 / Custom Matrix
Параметр BVOP формата : 1
Параметр QPel формата : Нет
Параметр GMC формата : Без точки перехода
Параметр матрицы формата : Выборочная
Идентификатор кодека : XVID
Идентификатор кодека/Подсказка : XviD
Продолжительность : 1 ч. 44 м.
Битрейт : 1546 Кбит/сек
Ширина : 704 пикселя
Высота : 528 пикселей
Соотношение сторон : 4:3
Частота кадров : 25,000 кадров/сек
Цветовое пространство : YUV
Субдискретизация насыщенности : 4:2:0
Битовая глубина : 8 бит
Тип развёртки : Прогрессивная
Метод сжатия : С потерями
Бит/(Пиксели*Кадры) : 0.166
Размер потока : 1,13 Гбайт (77%)
Библиотека кодирования : XviD 73

Аудио
Идентификатор : 1
Формат : AC-3
Формат/Информация : Audio Coding 3
Коммерческое название : Dolby Digital
Идентификатор кодека : 2000
Продолжительность : 1 ч. 44 м.
Вид битрейта : Постоянный
Битрейт : 448 Кбит/сек
Каналы : 6 каналов
Channel layout : L R C LFE Ls Rs
Частота : 48,0 КГц
Частота кадров : 31,250 кадров/сек (1536 SPF)
Битовая глубина : 16 бит
Метод сжатия : С потерями
Размер потока : 334 Мбайт (22%)
Выравнивание : Разделение по промежуткам
Продолжительность промежутка : 40 мс. (1,00 видеокадр)
Время предзагрузки промежутка : 500 мс
pb.wtf



Скачать Девять дней одного года через торрент http://picplus.ru/img/1810/03/7718dd4a.png Скачать фильм Девять дней одного года через торрент бесплантно в хорошем качестве Описание:Действие киноповести происходит в 60-е годы ХХ столетия. Молодые ученые-ядерщики, одержимый экспериментатор Гусев (Алексей ... 5 10 1
Info! Золотая раздача, скачанное не засчитывается.
Торрент: Зарегистрирован [2018-10-03 08:16] · скачан: 9 раз
Статус: √ проверено
Размер: 1.46 GB
Как cкачать? Как скачать Девять дней одного года через торрент | qTorrent

% Раздел Тема Автор DL S | L
Кино СССР [ 1.46 GB ] Девять дней одного года [1962 СССР DVDRip-AVC от AVP Studio] AVP Studio Скачать
1 | 0
Кино СССР [ 1.37 GB ] Девять дней одного года [1962 TVRip] olegus16 Скачать
1 | 0


>> Регистрируемся здесь <<






Отзывы и комментарии о схеме читаем и пишем здесь: ---> Отзывы и комментарии о схеме

Новые благодарочки в телеграм довольных пользователей:
скриншот   скриншот   скриншот   скриншот   скриншот
    Дорогой пользователь! Огромная просьба, поблагодарите релизера, оцените раздачу и оставьте свои комментарий, если Вы скачали Девять дней одного года через торрент бесплатно! Внесите свою лепту в развитие PiratBit!
    Комментировать посты могут только пользователи прошедшие не сложную регистрацию
    Показать сообщения:    

    Девять дней одного года через торрент
    Скачать бесплатно Девять дней одного года
    Девять дней одного года скачать торрент
    Девять дней одного года смотреть онлайн
    Cкачать фильм Девять дней одного года бесплатно
    Девять дней одного года скачать торрент в хорошем качестве
    Девять дней одного года смотреть онлайн бесплатно в хорошем качестве


    Вы не можете начинать темы
    Вы не можете отвечать на сообщения
    Вы не можете редактировать свои сообщения
    Вы не можете удалять свои сообщения
    Вы не можете голосовать в опросах
    Вы не можете прикреплять файлы к сообщениям
    Вы можете скачивать файлы