новый адрес
Мега распродажа FORZA HORIZON 4 ULTIMATE+ВСЕ DLC+ОНЛАЙН всего за 499р. 349 руб. (супер цена). Внимание количество ограничено!!!

iTunes

1+1

iTunes

мы

iTunes

1

iTunes

Чернобыль

iTunes

Ральф против интернета

Лицензия

ПШазам

Лицензия

Оно 2

Лицензия

30
pack

ВАЖНО

!!Акция!!

Alien_RageХит недели

RePack

Resident Evil 21

ИГРА 18+

pack

RePack

jed

!!Акция!!

Alien_Rage

RePack

fifa19

RePack

Assassins Creed: Odyssey

RePack

NEED FOR SPEED™ PAYBACK

3 сезон

9 сезон

Бесстыжие 9 сезон

Все сериалы

все сериалы на PB.wtf

RePack

FAR CRY 5
Ребята, катастрофически не хватает 1900р. для оплаты серверов за Октябрь (всвязи с блокировками трафик упал в 3 раза), 1-2р., выручайте.
  

Девять дней одного года (Михаил Ромм) [1962, СССР, драма, DVDRip-AVC от AVP Studio] pb.wtf

Девять дней одного года через торрент pb.wtf

Размер: 1.46 GB | Добавлен: 1 год 1 мес. назад | Торрент скачан:11 раз
Скачать  

03-10-2018 08:17 Девять дней одного года Скачать торрент  

Девять дней одного года
Страна: СССР
Производство: Мосфильм

Жанр: драма
Год выпуска: 1961
Продолжительность: 01:44:18

Перевод: Не требуется
Cубтитры: нет
Оригинальная аудиодорожка: русский

Режиссер: Михаил Ромм

В ролях:
Алексей Баталов, Иннокентий Смоктуновский, Татьяна Лаврова, Николай Плотников, Сергей Блинников, Евгений Евстигнеев, Михаил Козаков, Николай Граббе, Валентин Никулин, Павел Шпрингфельд, Александр Пелевин, Евгений Тетерин, Николай Сергеев, Ада Войцик, Валентина Беляева, Люсьена Овчинникова, Юрий Киреев, Борис Яшин, Игорь Добролюбов, Андрей Смирнов, Анна Павлова (IV), Резо Эсадзе, Георгий Епифанцев, Лев Дуров, Наталья Батырева, Зоя Василькова, Игорь Ясулович, Юрий Смирнов...
Об актёрах подробней

Описание:
Действие киноповести происходит в 60-е годы ХХ столетия. Молодые ученые-ядерщики, одержимый экспериментатор Гусев (Алексей Баталов) и скептически настроенный физик-теоретик Куликов (Иннокентий Смоктуновский), — давние друзья, влюблённые в одну девушку по имени Лёля (Татьяна Лаврова). Физик-атомщик Гусев возглавляет научные изыскания, начатые его учителем Синцовым (Николай Плотников), который в результате эксперимента получил смертельную дозу радиации. Облучён и Гусев

Источник: DVD9 R5
Качество видео: DVDRip-AVC
Формат видео: MKV

Видео: 712->760х570 (4:3), 25 fps, H264 ~ 1552 kbps avg, 0.153 bit/pixel
Аудио: 48 kHz, Dolby Digital AC3 5.1, 448 kbps

Раздача от:
Общее
Полное имя : Devyat.dney.odnogo.goda.1961.DVDRip-AVC_[New-team]_by_AVP_Studio.mkv
Формат : Matroska
Версия формата : Version 2
Размер файла : 1,46 Гбайт
Продолжительность : 1 ч. 44 м.
Общий поток : 2002 Кбит/сек
Дата кодирования : UTC 2018-09-28 03:23:45
Программа кодирования : mkvmerge v6.1.0 ('Old Devil') built on Mar 4 2013 09:10:42
Библиотека кодирования : libebml v1.3.0 + libmatroska v1.4.0

Видео
Идентификатор : 1
Формат : AVC
Формат/Информация : Advanced Video Codec
Профиль формата : High@L4.1
Настройки формата : CABAC / 10 Ref Frames
Параметр CABAC формата : Да
Параметр RefFrames формата : 10 кадров
Идентификатор кодека : V_MPEG4/ISO/AVC
Продолжительность : 1 ч. 44 м.
Битрейт : 1552 Кбит/сек
Ширина : 712 пикселей
Высота : 570 пикселей
Соотношение сторон : 4:3
Режим частоты кадров : Постоянный
Частота кадров : 25,000 кадров/сек
Цветовое пространство : YUV
Субдискретизация насыщенности : 4:2:0
Битовая глубина : 8 бит
Тип развёртки : Прогрессивная
Бит/(Пиксели*Кадры) : 0.153
Размер потока : 1,10 Гбайт (76%)
Библиотека кодирования : x264 core 157 r2932 303c484
Настройки программы : cabac=1 / ref=10 / deblock=1:-2:-1 / analyse=0x3:0x113 / me=umh / subme=10 / psy=1 / psy_rd=1.00:0.00 / mixed_ref=1 / me_range=32 / chroma_me=1 / trellis=2 / 8x8dct=1 / cqm=0 / deadzone=21,11 / fast_pskip=1 / chroma_qp_offset=-2 / threads=6 / lookahead_threads=1 / sliced_threads=0 / nr=0 / decimate=0 / interlaced=0 / bluray_compat=0 / constrained_intra=0 / bframes=8 / b_pyramid=2 / b_adapt=2 / b_bias=0 / direct=3 / weightb=1 / open_gop=0 / weightp=2 / keyint=250 / keyint_min=25 / scenecut=40 / intra_refresh=0 / rc=2pass / mbtree=0 / bitrate=1552 / ratetol=1.0 / qcomp=0.60 / qpmin=0 / qpmax=69 / qpstep=4 / cplxblur=20.0 / qblur=0.5 / ip_ratio=1.40 / pb_ratio=1.30 / aq=1:1.00
Default : Да
Forced : Нет

Аудио
Идентификатор : 2
Формат : AC-3
Формат/Информация : Audio Coding 3
Коммерческое название : Dolby Digital
Идентификатор кодека : A_AC3
Продолжительность : 1 ч. 44 м.
Вид битрейта : Постоянный
Битрейт : 448 Кбит/сек
Каналы : 6 каналов
Channel layout : L R C LFE Ls Rs
Частота : 48,0 КГц
Частота кадров : 31,250 кадров/сек (1536 SPF)
Битовая глубина : 16 бит
Метод сжатия : С потерями
Размер потока : 334 Мбайт (22%)
Default : Да
Forced : Нет
pb.wtf



Скачать Девять дней одного года через торрент http://picplus.ru/img/1810/03/7718dd4a.png Скачать фильм Девять дней одного года через торрент бесплантно в хорошем качестве Описание:Действие киноповести происходит в 60-е годы ХХ столетия. Молодые ученые-ядерщики, одержимый экспериментатор Гусев (Алексей ... 10 10 1
Info! Золотая раздача, скачанное не засчитывается.
Торрент: Зарегистрирован [2018-10-03 08:17] · скачан: 11 раз
Статус: √ проверено
Размер: 1.46 GB
Как cкачать? Как скачать Девять дней одного года через торрент | qTorrent

% Раздел Тема Автор DL S | L
Кино СССР [ 1.46 GB ] Девять дней одного года [1962 СССР DVDRip от AVP Studio] AVP Studio Скачать
1 | 0
Кино СССР [ 1.37 GB ] Девять дней одного года [1962 TVRip] olegus16 Скачать
1 | 0


>> Регистрируемся здесь <<






Отзывы и комментарии о схеме читаем и пишем здесь: ---> Отзывы и комментарии о схеме

Новые благодарочки в телеграм довольных пользователей:
скриншот   скриншот   скриншот   скриншот   скриншот
    Дорогой пользователь! Огромная просьба, поблагодарите релизера, оцените раздачу и оставьте свои комментарий, если Вы скачали Девять дней одного года через торрент бесплатно! Внесите свою лепту в развитие PiratBit!
    Комментировать посты могут только пользователи прошедшие не сложную регистрацию
    Показать сообщения:    

    Девять дней одного года через торрент
    Скачать бесплатно Девять дней одного года
    Девять дней одного года скачать торрент
    Девять дней одного года смотреть онлайн
    Cкачать фильм Девять дней одного года бесплатно
    Девять дней одного года скачать торрент в хорошем качестве
    Девять дней одного года смотреть онлайн бесплатно в хорошем качестве


    Вы не можете начинать темы
    Вы не можете отвечать на сообщения
    Вы не можете редактировать свои сообщения
    Вы не можете удалять свои сообщения
    Вы не можете голосовать в опросах
    Вы не можете прикреплять файлы к сообщениям
    Вы можете скачивать файлы