Ссылка на приватное зеркало нашего сайта всего за 1$. Внимание количество ограничено!!!

2 сезон

iTunes

iTunes

1

iTunes

iTunes

iTunes

WEBRip

iTunes

30
pack

Забери бонус

ВАЖНО

!!Акция!!

Alien_RageХит недели

RePack

RESIDENT EVIL 3: NEMESIS REMAKE

ИГРА 18+

pack

RePack

jed

!!Акция!!

Alien_Rage

RePack

fifa19

RePack

Assassins Creed: Odyssey

RePack

NEED FOR SPEED™ PAYBACK

4 сезон

9 сезон

Бесстыжие 9 сезон

Все сериалы

все сериалы на PB.wtf

RePack

FAR CRY 5
  

Дом Тьмы 2 / House of Darkness: New Blood (Патрик ДеЛюка) [2018, Ужасы, HDTVRip 720p] MVO ["Синема УС"] pb.wtf

Дом Тьмы 2 через торрент pb.wtf

Размер: 2.93 GB | Добавлен: 1 год 11 мес. назад | Торрент скачан:46 раз
Скачать  

03-10-2018 10:03 Дом Тьмы 2 Скачать торрент  

Дом Тьмы 2 / House of Darkness: New BloodГод выпуска: 2018
Страна: США
Жанр: Ужасы
Продолжительность: 01:26:39
Перевод: Любительский (многоголосый) | "Синема УС"
Субтитры: отсутствуют

Режиссер: Патрик ДеЛюка

rating

В ролях:

Кейт Стоун, Джейк Т. Гетман, Хилари Момбергер-Пауэрс, Эли Игл, Кристофер Гордон, Энтони Дженсен, Лайам МакНейлл

Описание:

Основанный на реальных событиях триллер рассказывает историю матери-одиночки, которая считает, что её семейная трагедия была вызвана тёмными силами.

Качество: HDTVRip 720p
Формат: MKV

Видео: h.264,4 457 kb/s, 1280x720
Аудио: Русский, (AC3, 2 ch, 384 Кбит/с)

Общее
Уникальный идентификатор : 188122407578063580985814859175273309230 (0x8D870ECBC00CF7E5B6160D93E566242E)
Полное имя : D:\house.of.darkness.new.blood.2O18.P.HDTV.72Op_KOSHARA.mkv
Формат : Matroska
Версия формата : Version 2
Размер файла : 2,93 Гбайт
Продолжительность : 1 ч. 26 м.
Режим общего битрейта : Переменный
Общий поток : 4843 Кбит/сек
Дата кодирования : UTC 2018-09-22 06:34:14
Программа кодирования : mkvmerge v8.3.0 ('Over the Horizon') 64bit
Библиотека кодирования : libebml v1.3.1 + libmatroska v1.4.2

Видео
Идентификатор : 1
Формат : AVC
Формат/Информация : Advanced Video Codec
Профиль формата : High@L4.1
Параметр CABAC формата : Да
Параметр RefFrames формата : 4 кадра
Идентификатор кодека : V_MPEG4/ISO/AVC
Продолжительность : 1 ч. 26 м.
Вид битрейта : Переменный
Битрейт : 4457 Кбит/сек
Максимальный битрейт : 5000 Кбит/сек
Ширина : 1280 пикселей
Высота : 720 пикселей
Соотношение сторон : 16:9
Режим частоты кадров : Постоянный
Частота кадров : 23,976 (24000/1001) кадра/сек
Стандарт вещания : Component
Цветовое пространство : YUV
Субдискретизация насыщенности : 4:2:0
Битовая глубина : 8 бит
Тип развёртки : Прогрессивная
Бит/(Пиксели*Кадры) : 0.197
Размер потока : 2,64 Гбайт (90%)
Default : Да
Forced : Нет
Цветовой диапазон : Limited
Основные цвета : BT.709
Характеристики трансфера : BT.709
Коэффициенты матрицы : BT.709

Аудио
Идентификатор : 2
Формат : AC-3
Формат/Информация : Audio Coding 3
Расширение режима : CM (complete main)
Параметр Endianness формата : Big
Идентификатор кодека : A_AC3
Продолжительность : 1 ч. 26 м.
Вид битрейта : Постоянный
Битрейт : 384 Кбит/сек
Каналы : 2 канала
Расположение каналов : Front: L R
Частота : 48,0 КГц
Частота кадров : 31,250 кадров/сек (1536 spf)
Метод сжатия : С потерями
Размер потока : 238 Мбайт (8%)
Default : Да
Forced : Нет

pb.wtf



Скачать Дом Тьмы 2 через торрент http://img11.lostpic.net/2018/10/03/1eebe962329b2ae452c1e48d5ebbc888.jpg Скачать фильм Дом Тьмы 2 через торрент бесплантно в хорошем качестве Описание: Основанный на реальных событиях триллер рассказывает историю матери-одиночки, которая считает, что её семейная трагедия была ... 10 10 2
Торрент: Зарегистрирован [2018-10-03 10:03] · скачан: 46 раз
Статус: T временная
Размер: 2.93 GB
Как cкачать? Как скачать Дом Тьмы 2 через торрент | qTorrent

% Раздел Тема Автор DL S | L
T Фильмы (мультфильмы) cо спонсором показа (Новинки AVI/MKV) [ 1.37 GB ] Дом Тьмы 2 / House of Darkness: New Blood [2018 HDTVRip] MVO ["Синема УС"] bober100 Скачать
1 | 0

28-11-2019 20:33  

Отключить всю рекламу на сайте

    Дорогой пользователь! Огромная просьба, поблагодарите релизера, оцените раздачу и оставьте свои комментарий, если Вы скачали Дом Тьмы 2 через торрент бесплатно! Внесите свою лепту в развитие PiratBit!
    Комментировать посты могут только пользователи прошедшие не сложную регистрацию
    Показать сообщения:    

    Дом Тьмы 2 через торрент
    Скачать бесплатно Дом Тьмы 2
    Дом Тьмы 2 скачать торрент
    Дом Тьмы 2 смотреть онлайн
    Cкачать фильм Дом Тьмы 2 бесплатно
    Дом Тьмы 2 скачать торрент в хорошем качестве
    Дом Тьмы 2 смотреть онлайн бесплатно в хорошем качестве


    Вы не можете начинать темы
    Вы не можете отвечать на сообщения
    Вы не можете редактировать свои сообщения
    Вы не можете удалять свои сообщения
    Вы не можете голосовать в опросах
    Вы не можете прикреплять файлы к сообщениям
    Вы можете скачивать файлы