Ссылка на приватное зеркало нашего сайта всего за 1$. Внимание количество ограничено!!!

2 сезон

iTunes

1 сезон

1

2 сезон

2 сезон

iTunes

1 сезон

RePack

30

Ultimate

ВАЖНО

ИГРА 18+

pack

RePack

MK11
pack

Забери бонус

RePack

jed

!!Акция!!

Alien_Rage

RePack

fifa19

RePack

Assassins Creed: Odyssey

RePack

NEED FOR SPEED™ PAYBACK

4 сезон

9 сезон

Бесстыжие 9 сезон

Все сериалы

все сериалы на PB.wtf

RePack

FAR CRY 5
  

Операция «Финал» / Operation Finale (Крис Вайц) [2018, триллер, драма, биография, история, WEBRip 1080p] [DUB] (Пифагор) pb.wtf

Операция «Финал» через торрент pb.wtf

Раздают: 1 [ 0 KB/s ]
Размер: 3.81 GB | Добавлен: 2 года 1 мес. назад | Торрент скачан:520 раз
Скачать  

03-10-2018 10:16 Операция «Финал» Скачать торрент  

Операция «Финал» / Operation Finale
Год выпуска: 2018
Страна: США
Жанр: триллер, драма, биография, история,
Продолжительность: 02:03:36
Перевод: Дублированный | Пифагор
Субтитры: Русские (Forced; Full), английские (Full)

Режиссер: Крис Вайц

В ролях: Оскар Айзек, Бен Кингсли, Мелани Лоран, Лайор Раз, Ник Кролл, Майкл Аронов, Охад Кноллер, Грег Хилл, Торбен Либрехт Описание: Через 15 лет после окончания Второй мировой войны создаётся команда спецагентов, чтобы выследить Адольфа Эйхмана — печально известного сотрудника гестапо, отвечавшего за «окончательное решение еврейского вопроса».

rating


бюджет -- $24 000 000

Качество: WEBRip 1080p
Формат: MKV
Видео: AVC, 1920x1080 (16:9), 23.976 fps, ~ 3100 Kbps
Аудио 1: E-AC3, 48 KHz, 6 ch, 640 kbps (Дубляж)
Аудио 2: E-AC3, 48 KHz, 6 ch, 640 kbps (Original)

За дубляж и субтитры спасибо EniaHD
General
Unique ID : 196543143237558861724188052146542555690 (0x93DCD51E3AD565ECBD8E6DA8EEDB322A)
Complete name : E:\Operation.Finale.2018.1080p.NF.mkv
Format : Matroska
Format version : Version 4 / Version 2
File size : 3.81 GiB
Duration : 2 h 3 min
Overall bit rate mode : Variable
Overall bit rate : 4 415 kb/s
Encoded date : UTC 2018-10-03 09:35:50
Writing application : mkvmerge v9.9.0 ('Pick Up') 32bit
Writing library : libebml v1.3.4 + libmatroska v1.4.5

Video
ID : 1
Format : AVC
Format/Info : Advanced Video Codec
Format profile : Main@L4
Format settings : CABAC / 3 Ref Frames
Format settings, CABAC : Yes
Format settings, RefFrames : 3 frames
Codec ID : V_MPEG4/ISO/AVC
Duration : 2 h 3 min
Bit rate mode : Variable
Bit rate : 3 160 kb/s
Maximum bit rate : 4 740 kb/s
Width : 1 920 pixels
Height : 1 080 pixels
Display aspect ratio : 16:9
Frame rate mode : Constant
Frame rate : 23.976 (24000/1001) FPS
Color space : YUV
Chroma subsampling : 4:2:0
Bit depth : 8 bits
Scan type : Progressive
Bits/(Pixel*Frame) : 0.064
Stream size : 2.63 GiB (69%)
Writing library : x264 core 148 r2715 7e75228
Encoding settings : cabac=1 / ref=3 / deblock=1:0:0 / analyse=0x1:0x111 / me=umh / subme=10 / psy=1 / psy_rd=1.00:0.00 / mixed_ref=1 / me_range=24 / chroma_me=1 / trellis=2 / 8x8dct=0 / cqm=0 / deadzone=21,11 / fast_pskip=1 / chroma_qp_offset=-2 / threads=8 / lookahead_threads=1 / sliced_threads=0 / nr=0 / decimate=1 / interlaced=0 / bluray_compat=0 / stitchable=1 / constrained_intra=0 / bframes=2 / b_pyramid=0 / b_adapt=2 / b_bias=0 / direct=3 / weightb=1 / open_gop=0 / weightp=2 / keyint=48 / keyint_min=25 / scenecut=0 / intra_refresh=0 / rc_lookahead=48 / rc=2pass / mbtree=1 / bitrate=3160 / ratetol=1.0 / qcomp=0.50 / qpmin=6 / qpmax=51 / qpstep=4 / cplxblur=20.0 / qblur=0.5 / vbv_maxrate=4740 / vbv_bufsize=6320 / nal_hrd=vbr / filler=0 / ip_ratio=1.40 / aq=1:1.00
Language : English
Default : Yes
Forced : No

Audio #1
ID : 2
Format : E-AC-3
Format/Info : Enhanced Audio Coding 3
Format settings, Endianness : Big
Codec ID : A_EAC3
Duration : 2 h 3 min
Bit rate mode : Constant
Bit rate : 640 kb/s
Channel(s) : 6 channels
Channel positions : Front: L C R, Side: L R, LFE
Sampling rate : 48.0 kHz
Frame rate : 187.500 FPS (256 SPF)
Compression mode : Lossy
Stream size : 566 MiB (14%)
Title : Dub
Language : Russian
Service kind : Complete Main
Default : Yes
Forced : No

Audio #2
ID : 3
Format : E-AC-3
Format/Info : Enhanced Audio Coding 3
Format settings, Endianness : Big
Codec ID : A_EAC3
Duration : 2 h 3 min
Bit rate mode : Constant
Bit rate : 640 kb/s
Channel(s) : 6 channels
Channel positions : Front: L C R, Side: L R, LFE
Sampling rate : 48.0 kHz
Frame rate : 187.500 FPS (256 SPF)
Compression mode : Lossy
Stream size : 566 MiB (14%)
Title : Original
Language : English
Service kind : Complete Main
Default : No
Forced : No

Text #1
ID : 4
Format : UTF-8
Codec ID : S_TEXT/UTF8
Codec ID/Info : UTF-8 Plain Text
Title : Forced
Language : Russian
Default : Yes
Forced : Yes

Text #2
ID : 5
Format : UTF-8
Codec ID : S_TEXT/UTF8
Codec ID/Info : UTF-8 Plain Text
Title : Russian
Language : Russian
Default : No
Forced : No

Text #3
ID : 6
Format : UTF-8
Codec ID : S_TEXT/UTF8
Codec ID/Info : UTF-8 Plain Text
Title : Forced
Language : English
Default : No
Forced : Yes

Text #4
ID : 7
Format : UTF-8
Codec ID : S_TEXT/UTF8
Codec ID/Info : UTF-8 Plain Text
Title : English
Language : English
Default : No
Forced : No

Text #5
ID : 8
Format : UTF-8
Codec ID : S_TEXT/UTF8
Codec ID/Info : UTF-8 Plain Text
Title : Swedish
Language : Swedish
Default : No
Forced : No

Text #6
ID : 9
Format : UTF-8
Codec ID : S_TEXT/UTF8
Codec ID/Info : UTF-8 Plain Text
Title : Norwegian
Language : Norwegian
Default : No
Forced : No

Text #7
ID : 10
Format : UTF-8
Codec ID : S_TEXT/UTF8
Codec ID/Info : UTF-8 Plain Text
Title : German
Language : German
Default : No
Forced : No

Text #8
ID : 11
Format : UTF-8
Codec ID : S_TEXT/UTF8
Codec ID/Info : UTF-8 Plain Text
Title : Finnish
Language : Finnish
Default : No
Forced : No
скриншот  скриншот  скриншот  
pb.wtf



Скачать Операция «Финал» через торрент https://a.radikal.ru/a18/1810/25/ddfbad068bca.jpg Скачать фильм Операция «Финал» через торрент бесплантно в хорошем качестве Описание: Через 15 лет после окончания Второй мировой войны создаётся команда спецагентов, чтобы выследить Адольфа Эйхмана — печально ... 10 10 13
Торрент: Зарегистрирован [2018-10-03 10:16] · скачан: 520 раз
Статус: √ проверено
Размер: 3.81 GB
Как cкачать? Как скачать Операция «Финал» через торрент | qTorrent

% Раздел Тема Автор DL S | L
Фильмы [HD 720p, 1080p] (Хороший звук DUB, MVO) [ 4.96 GB ] Операция «Финал» / Operation Finale [2018 биография история BDRip 720p] DUB [Пифагор] MVO - ExKinoRay Enigma2010 Скачать
8 | 0
Фильмы 2018 [DVDrip, WEB-DLRip, HDrip] (DUB, MVO) [ 2.61 GB ] Операция «Финал» / Operation Finale [2018 биография история BDRip-AVC] DUB [Пифагор] bober100 Скачать
1 | 0
Фильмы 2018 [DVDrip, WEB-DLRip, HDrip] (DUB, MVO) [ 2.18 GB ] Операция «Финал» / Operation Finale [2018 биография история BDRip] DUB [Пифагор] bober100 Скачать
1 | 0
Фильмы 2018 [DVDrip, WEB-DLRip, HDrip] (DUB, MVO) [ 1.46 GB ] Операция «Финал» / Operation Finale [2018 биография история BDRip] DUB [Пифагор] bober100 Скачать
1 | 0
Фильмы [HD 720p, 1080p] (Хороший звук DUB, MVO) [ 13.52 GB ] Операция «Финал» / Operation Finale [2018 биография история BDRip 1080p] DUB [Пифагор] bober100 Скачать
1 | 0
Фильмы (WEB-DL 720p, 1080p) [ 2.42 GB ] Операция «Финал» / Operation Finale [2018 биография история WEBRip 720p] DUB [Пифагор] bober100 Скачать
1 | 0

28-11-2019 20:33  

Отключить всю рекламу на сайте

03-10-2018 10:49 Операция «Финал» Скачать торрент  

Спасибо Бро pb.wtf



03-10-2018 10:54 Операция «Финал» Скачать торрент  

rayl116rus писал(а):

Спасибо Бро

pb.wtf



    Дорогой пользователь! Огромная просьба, поблагодарите релизера, оцените раздачу и оставьте свои комментарий, если Вы скачали Операция «Финал» через торрент бесплатно! Внесите свою лепту в развитие PiratBit!
    Комментировать посты могут только пользователи прошедшие не сложную регистрацию
    Показать сообщения:    

    Операция «Финал» через торрент
    Скачать бесплатно Операция «Финал»
    Операция «Финал» скачать торрент
    Операция «Финал» смотреть онлайн
    Cкачать фильм Операция «Финал» бесплатно
    Операция «Финал» скачать торрент в хорошем качестве
    Операция «Финал» смотреть онлайн бесплатно в хорошем качестве


    Вы не можете начинать темы
    Вы не можете отвечать на сообщения
    Вы не можете редактировать свои сообщения
    Вы не можете удалять свои сообщения
    Вы не можете голосовать в опросах
    Вы не можете прикреплять файлы к сообщениям
    Вы можете скачивать файлы