Ссылка на приватное зеркало нашего сайта всего за 1$. Внимание количество ограничено!!!

2 сезон

iTunes

1 сезон

1

2 сезон

2 сезон

iTunes

1 сезон

RePack

30

Ultimate

ВАЖНО

ИГРА 18+

pack

RePack

MK11
pack

Забери бонус

RePack

jed

!!Акция!!

Alien_Rage

RePack

fifa19

RePack

Assassins Creed: Odyssey

RePack

NEED FOR SPEED™ PAYBACK

4 сезон

9 сезон

Бесстыжие 9 сезон

Все сериалы

все сериалы на PB.wtf

RePack

FAR CRY 5
  

Достало / Sick of It / 1 сезон / 1-6 серия из 6 (Ричард Йи) [2018, комедия, HDTVRip 1080p] [MVO] (Ozz) pb.wtf

Достало через торрент pb.wtf

Размер: 4.69 GB | Добавлен: 2 года 1 мес. назад | Торрент скачан:23 раза
Скачать  

03-10-2018 10:43 Достало Скачать торрент  

Sick of It - First Season
Достало - Первый сезон
Год выхода: 2018
Страна
: Великобритания
Жанр
: комедия
Продолжительность: ~00:20:00
Перевод: Профессиональный (многоголосый закадровый) Ozz
Режиссер: Ричард Йи
В ролях: Карл Пилкингтон, Сондра Джеймс, Нэйтан Амзи, Крэйг Паркинсон, Перри Бенсон, Ричард Симс, Алан Дэвид, Софи Харкнесс, Шола Адевузи, Гарри Дикман и др.
Описание: В долгожданной "Достале" Пилкингтон играет вымышленную версию себя - мужчину средних лет, которого только что бросила девушка, и он вынужден жить со своей престарелой тетушкой. Ближайший друг Карла - голос в его голове, мизантропическое альтер-эго в образе его двойника. Нецензурная истинная версия Карла говорит то, что он действительно думает, не рискуя оскорбить других.


скриншот  rating Sample
Роли озвучивают: | Алексей Серёгин, Маргарита Корш, Иван Кузнецов |
Автор перевода: | Илья Уюсов |
Подготовлено: Ozz
Качество: HDTVRip 1080p
Формат: mkv
Видео кодек: x264
Аудио кодек: AC3
Видео: 1918x802 at 25 fps, AVC, 5000 kbps avg, 0.130 b/pixel
Аудио #1: Russian 48.0 KHz, AC3 , 2 channels, 192 Kbps |Ozz|
Аудио #2: English 48.0 KHz, AC3 , 2 channels, 192 Kbps |Original|
Субтитры: Russian, English (srt)

Раздача от -- скриншот  
General
Unique ID : 324550036993312371723538312883187941135 (0xF42A103F8D8BEB7DBBBED66395BAFF0F)
Complete name : E:\Достало. Сериал. 2018. OZZ (HDTVRip 1080p)\Sick.Of.It.s01e01. Пилот.mkv
Format : Matroska
Format version : Version 4 / Version 2
File size : 808 MiB
Duration : 20 min 59 s
Overall bit rate : 5 382 kb/s
Movie name : Pilot
Encoded date : UTC 2018-09-30 21:09:04
Writing application : mkvmerge v25.0.0 ('Prog Noir') 64-bit
Writing library : libebml v1.3.6 + libmatroska v1.4.9

Video
ID : 1
Format : AVC
Format/Info : Advanced Video Codec
Format profile : High@L4.2
Format settings : CABAC / 4 Ref Frames
Format settings, CABAC : Yes
Format settings, RefFrames : 4 frames
Codec ID : V_MPEG4/ISO/AVC
Duration : 20 min 59 s
Bit rate : 4 891 kb/s
Width : 1 918 pixels
Height : 802 pixels
Display aspect ratio : 2.40:1
Frame rate mode : Constant
Frame rate : 25.000 FPS
Color space : YUV
Chroma subsampling : 4:2:0
Bit depth : 8 bits
Scan type : Progressive
Bits/(Pixel*Frame) : 0.127
Stream size : 734 MiB (91%)
Writing library : x264 core 157 r2932 303c484
Encoding settings : cabac=1 / ref=4 / deblock=1:0:0 / analyse=0x3:0x113 / me=hex / subme=8 / psy=1 / psy_rd=1.00:0.00 / mixed_ref=1 / me_range=16 / chroma_me=1 / trellis=2 / 8x8dct=1 / cqm=0 / deadzone=21,11 / fast_pskip=1 / chroma_qp_offset=-2 / threads=12 / lookahead_threads=2 / sliced_threads=0 / nr=0 / decimate=1 / interlaced=0 / bluray_compat=0 / constrained_intra=0 / bframes=3 / b_pyramid=2 / b_adapt=1 / b_bias=0 / direct=3 / weightb=1 / open_gop=0 / weightp=2 / keyint=250 / keyint_min=25 / scenecut=40 / intra_refresh=0 / rc_lookahead=50 / rc=crf / mbtree=1 / crf=18.0 / qcomp=0.60 / qpmin=0 / qpmax=69 / qpstep=4 / ip_ratio=1.40 / aq=1:1.00
Language : English
Default : Yes
Forced : No
Color range : Limited
Matrix coefficients : BT.709

Audio #1
ID : 2
Format : AC-3
Format/Info : Audio Coding 3
Format settings, Endianness : Big
Codec ID : A_AC3
Duration : 20 min 59 s
Bit rate mode : Constant
Bit rate : 192 kb/s
Channel(s) : 2 channels
Channel positions : Front: L R
Sampling rate : 48.0 kHz
Frame rate : 31.250 FPS (1536 SPF)
Bit depth : 16 bits
Compression mode : Lossy
Stream size : 28.8 MiB (4%)
Language : Russian
Service kind : Complete Main
Default : Yes
Forced : No

Audio #2
ID : 3
Format : AC-3
Format/Info : Audio Coding 3
Format settings, Endianness : Big
Codec ID : A_AC3
Duration : 20 min 59 s
Bit rate mode : Constant
Bit rate : 192 kb/s
Channel(s) : 2 channels
Channel positions : Front: L R
Sampling rate : 48.0 kHz
Frame rate : 31.250 FPS (1536 SPF)
Bit depth : 16 bits
Compression mode : Lossy
Stream size : 28.8 MiB (4%)
Language : English
Service kind : Complete Main
Default : No
Forced : No

Text #1
ID : 4
Format : UTF-8
Codec ID : S_TEXT/UTF8
Codec ID/Info : UTF-8 Plain Text
Language : Russian
Default : No
Forced : No

Text #2
ID : 5
Format : UTF-8
Codec ID : S_TEXT/UTF8
Codec ID/Info : UTF-8 Plain Text
Language : English
Default : No
Forced : No
скриншот  скриншот  скриншот  
Внимание! Раздача ведётся путём добавления новых серий; при каждом добавлении создаётся новый торрент. Чтобы начать докачку новой серии, пользователям необходимо сделать следующее:
(1) остановить скачивание,
(2) удалить старый торрент у себя из клиента (старые серии удалять не надо),
(3) скачать новый торрент и запустить его у себя в клиенте вместо старого, при этом указать клиенту путь в старую папку куда и должно происходить скачивание новых серий.

Ваш клиент при этом должен произвести хеширование (проверку) старой папки (если не производит сам - помогите ему сделать это), и будет докачивать только те серии которых у вас ещё нет. Старые серии при этом не удаляются, а продолжают раздаваться!

Eсли вы уже удалили старые серии, то предотвратить повторную закачку старых серий можно, отжав галочку в соответствующих местах при запуске нового торрента. По возможности, желательно не удалять старые серии как можно дольше чтобы релизёр не столько продолжал раздавать старые серии, а смог сконцентрироваться на новых.

pb.wtf



Скачать Достало через торрент https://i5.imageban.ru/out/2018/09/30/3cfcff9920a6fe584c925ad9772a7297.jpg Скачать фильм Достало через торрент бесплантно в хорошем качестве Описание: В долгожданной "Достале" Пилкингтон играет вымышленную версию себя - мужчину средних лет, которого только что бросила девушка, и ... 5.5 10 2
Торрент: Зарегистрирован [2018-10-26 20:03] · скачан: 23 раз
Статус: √ проверено
Размер: 4.69 GB
Как cкачать? Как скачать Достало через торрент | qTorrent

28-11-2019 20:33  

Отключить всю рекламу на сайте

    Дорогой пользователь! Огромная просьба, поблагодарите релизера, оцените раздачу и оставьте свои комментарий, если Вы скачали Достало через торрент бесплатно! Внесите свою лепту в развитие PiratBit!
    Комментировать посты могут только пользователи прошедшие не сложную регистрацию
    Показать сообщения:    

    Достало через торрент
    Скачать бесплатно Достало
    Достало скачать торрент
    Достало смотреть онлайн
    Cкачать фильм Достало бесплатно
    Достало скачать торрент в хорошем качестве
    Достало смотреть онлайн бесплатно в хорошем качестве


    Вы не можете начинать темы
    Вы не можете отвечать на сообщения
    Вы не можете редактировать свои сообщения
    Вы не можете удалять свои сообщения
    Вы не можете голосовать в опросах
    Вы не можете прикреплять файлы к сообщениям
    Вы можете скачивать файлы