Ссылка на приватное зеркало нашего сайта всего за 1$. Внимание количество ограничено!!!

2 сезон

iTunes

iTunes

1

iTunes

iTunes

iTunes

WEBRip

iTunes

30
pack

Вам бонус

ВАЖНО

!!Акция!!

Alien_RageХит недели

RePack

Horizon Zero Dawn

ИГРА 18+

pack

RePack

jed

!!Акция!!

Alien_Rage

RePack

fifa19

RePack

Assassins Creed: Odyssey

RePack

NEED FOR SPEED™ PAYBACK

4 сезон

9 сезон

Бесстыжие 9 сезон

Все сериалы

все сериалы на PB.wtf

RePack

FAR CRY 5
  

Я заказала тебя убить / I Put a Hit on You (Дэйн Кларк, Линси Стюарт) [2014, Триллер, комедия, мелодрама, WEB-DLRip-AVC] [VO] (datynet) pb.wtf

Я заказала тебя убить через торрент pb.wtf

Размер: 719 MB | Добавлен: 1 год 11 мес. назад | Торрент скачан:48 раз
Скачать  

03-10-2018 14:21 Я заказала тебя убить Скачать торрент  

Я заказала тебя убить / I Put a Hit on You Страна: Канада
Жанр: Триллер, комедия, мелодрама
Год выпуска: 2014
Продолжительность: 01:17:57
Озвучание: Любительское (одноголосое закадровое) datynet; по переводу: Куценко
Субтитры: нет

Режиссер: Дэйн Кларк / Dane Clark, Линси Стюарт / Linsey Stewart

В ролях: Аарон Эшмор, Сара Каннинг, Дэнни Смит, Хизер Санде, Джонатан Ллир, Сара Эванс, Кори Лэнс, Джесси Гейб, Даррел Фариа, Дэвид Кинсман, Фрэнсис-Поль Лис, Энжел Аукойн, Изабелла Бернардо, Цянь Гэн, Джон Оливер, Оксана Лачаева, Джон де Клейн, Иэн Сандерсон, Брайан Кристофер, Тодд Макгиннис, Шон Кауфман.

Описание: Девушка с разбитым сердцем объединилась со своим бывшим парнем, чтобы попытаться остановить киллера, которого она случайно наняла, чтобы убить его.

rating

Доп. информация: 2 номинации:
Canadian Comedy Awards 2015
Slamdance Film Festival 2014




Сэмпл: http://multi-up.com/1210271

Качество видео: WEB-DLRip-AVC
Формат видео: MKV
Видео: 720x360 (2.37:1), 23.976 fps, MPEG4 Video (H264) High@L3.1 ~1 100 kbps avg, 0.177 bit/pixel
Аудио: 48 kHz, MPEG Layer 3, 2 ch, ~ 192 kbps avg
Format                      : Matroska
Format version : Version 4 / Version 2
File size : 719 MiB
Duration : 1 h 17 min
Overall bit rate : 1 289 kb/s
Encoded date : UTC 2018-09-28 09:38:02
Writing application : mkvmerge v9.6.0 ('Slave To Your Mind') 64bit
Writing library : libebml v1.3.4 + libmatroska v1.4.5

Video
ID : 1
Format : AVC
Format/Info : Advanced Video Codec
Format profile : High@L3.1
Format settings, CABAC : Yes
Format settings, RefFrames : 5 frames
Codec ID : V_MPEG4/ISO/AVC
Duration : 1 h 17 min
Bit rate : 1 100 kb/s
Width : 720 pixels
Height : 360 pixels
Display aspect ratio : 2.37:1
Frame rate mode : Constant
Frame rate : 23.976 FPS
Color space : YUV
Chroma subsampling : 4:2:0
Bit depth : 8 bits
Scan type : Progressive
Bits/(Pixel*Frame) : 0.177
Stream size : 611 MiB (85%)
Default : Yes
Forced : No

Audio
ID : 2
Format : MPEG Audio
Format version : Version 1
Format profile : Layer 3
Codec ID : A_MPEG/L3
Codec ID/Hint : MP3
Duration : 1 h 17 min
Bit rate mode : Constant
Bit rate : 192 kb/s
Channel(s) : 2 channels
Sampling rate : 48.0 kHz
Compression mode : Lossy
Stream size : 107 MiB (15%)
Default : Yes
Forced : No
скриншот  скриншот  скриншот  
pb.wtf



Скачать Я заказала тебя убить через торрент https://c.radikal.ru/c13/1810/1a/8199571fd3ef.jpg Скачать фильм Я заказала тебя убить через торрент бесплантно в хорошем качестве Описание: Девушка с разбитым сердцем объединилась со своим бывшим парнем, чтобы попытаться остановить киллера, которого она случайно ... 7.5 10 2
Info! Серебряная раздача, засчитывается только 50% скачанного.
Торрент: Зарегистрирован [2018-10-03 14:21] · скачан: 48 раз
Статус: √ проверено
Размер: 719 MB
Как cкачать? Как скачать Я заказала тебя убить через торрент | qTorrent

28-11-2019 20:33  

Отключить всю рекламу на сайте

    Дорогой пользователь! Огромная просьба, поблагодарите релизера, оцените раздачу и оставьте свои комментарий, если Вы скачали Я заказала тебя убить через торрент бесплатно! Внесите свою лепту в развитие PiratBit!
    Комментировать посты могут только пользователи прошедшие не сложную регистрацию
    Показать сообщения:    

    Я заказала тебя убить через торрент
    Скачать бесплатно Я заказала тебя убить
    Я заказала тебя убить скачать торрент
    Я заказала тебя убить смотреть онлайн
    Cкачать фильм Я заказала тебя убить бесплатно
    Я заказала тебя убить скачать торрент в хорошем качестве
    Я заказала тебя убить смотреть онлайн бесплатно в хорошем качестве


    Вы не можете начинать темы
    Вы не можете отвечать на сообщения
    Вы не можете редактировать свои сообщения
    Вы не можете удалять свои сообщения
    Вы не можете голосовать в опросах
    Вы не можете прикреплять файлы к сообщениям
    Вы можете скачивать файлы