Ссылка на приватное зеркало всего за 1$. Внимание количество ограничено!!!

OK

1+1

iTunes

мы

OK

1

WEB-DLRip

Джокер

Пифагор

Ведьмак / The Witcher сериал

Лицензия

ПШазам

ОК

Оно 2

iTunes

30
pack

Вам бонус

ВАЖНО

!!Акция!!

Alien_RageХит недели

RePack

Resident Evil 21

ИГРА 18+

pack

RePack

jed

RePack

fifa19

RePack

Assassins Creed: Odyssey

RePack

NEED FOR SPEED™ PAYBACK

4 сезон

9 сезон

Бесстыжие 9 сезон

Все сериалы

все сериалы на PB.wtf

RePack

FAR CRY 5
  

Его полное помешательство / His Perfect Obsession (Александр Карьер) [2018, Триллер, HDTVRip 720p] MVO ["Синема УС"] pb.wtf

Его полное помешательство через торрент pb.wtf

Размер: 2.95 GB | Добавлен: 1 год 3 мес. назад | Торрент скачан:25 раз
Скачать  

03-10-2018 15:01 Его полное помешательство Скачать торрент  

Его полное помешательство / His Perfect ObsessionГод выпуска: 2018
Страна: США
Жанр: Триллер
Продолжительность: 01:26:47
Перевод: Любительский (многоголосый) | "Синема УС"
Субтитры: отсутствуют

Режиссер: Александр Карьер

rating

В ролях:

Эрианн Цукер, Алиса Сковбай, Микаэль Конде, Дебора Гровер, Томас Чованец, Сэмми Барбер, Хизер Тод Митчелл, Майк Стечисон, Шонн Галлахер, Скотт Гибсон

Описание:

Эллисон и ее слепая дочь, Эбигейл, возвращаются в родной городок после смерти любимой тети, и в их жизни появляется старый школьный друг героини, все эти годы испытывавший к ней ненормальную и опасную страсть. Эбигейл, которой сначала так полюбился маленький и тихий городок, начинает понимать, что на самом деле всё не так, как кажется.

Качество: HDTVRip 720p
Формат: MKV

Видео: h.264,4 478 kb/s, 1280x720
Аудио#1: Русский, (AC3, 2 ch, 384 Кбит/с)
скриншот  скриншот  скриншот  

Общее
Уникальный идентификатор : 243300371814627365921541756164891874510 (0xB709F278CE02DAA0B8CDE5DDF72614CE)
Полное имя : D:\his.perfect.obsession.2018.P.HDTV.72Op_KOSHARA.mkv
Формат : Matroska
Версия формата : Version 2
Размер файла : 2,95 Гбайт
Продолжительность : 1 ч. 26 м.
Режим общего битрейта : Переменный
Общий поток : 4864 Кбит/сек
Дата кодирования : UTC 2018-09-22 06:56:51
Программа кодирования : mkvmerge v8.3.0 ('Over the Horizon') 64bit
Библиотека кодирования : libebml v1.3.1 + libmatroska v1.4.2

Видео
Идентификатор : 1
Формат : AVC
Формат/Информация : Advanced Video Codec
Профиль формата : High@L4.1
Параметр CABAC формата : Да
Параметр RefFrames формата : 4 кадра
Идентификатор кодека : V_MPEG4/ISO/AVC
Продолжительность : 1 ч. 26 м.
Вид битрейта : Переменный
Битрейт : 4478 Кбит/сек
Максимальный битрейт : 5000 Кбит/сек
Ширина : 1280 пикселей
Высота : 720 пикселей
Соотношение сторон : 16:9
Режим частоты кадров : Постоянный
Частота кадров : 23,976 (24000/1001) кадра/сек
Стандарт вещания : Component
Цветовое пространство : YUV
Субдискретизация насыщенности : 4:2:0
Битовая глубина : 8 бит
Тип развёртки : Прогрессивная
Бит/(Пиксели*Кадры) : 0.198
Размер потока : 2,66 Гбайт (90%)
Default : Да
Forced : Нет
Цветовой диапазон : Limited
Основные цвета : BT.709
Характеристики трансфера : BT.709
Коэффициенты матрицы : BT.709

Аудио
Идентификатор : 2
Формат : AC-3
Формат/Информация : Audio Coding 3
Расширение режима : CM (complete main)
Параметр Endianness формата : Big
Идентификатор кодека : A_AC3
Продолжительность : 1 ч. 26 м.
Вид битрейта : Постоянный
Битрейт : 384 Кбит/сек
Каналы : 2 канала
Расположение каналов : Front: L R
Частота : 48,0 КГц
Частота кадров : 31,250 кадров/сек (1536 spf)
Метод сжатия : С потерями
Размер потока : 238 Мбайт (8%)
Default : Да
Forced : Нет

pb.wtf



Скачать Его полное помешательство через торрент https://d.radikal.ru/d33/1810/cb/9eaea5e74b95.jpg Скачать фильм Его полное помешательство через торрент бесплантно в хорошем качестве Описание: Эллисон и ее слепая дочь, Эбигейл, возвращаются в родной городок после смерти любимой тети, и в их жизни появляется старый ... 10 10 2
Торрент: Зарегистрирован [2018-10-03 15:01] · скачан: 25 раз
Статус: T временная
Размер: 2.95 GB
Как cкачать? Как скачать Его полное помешательство через торрент | qTorrent

% Раздел Тема Автор DL S | L
T Фильмы (мультфильмы) cо спонсором показа (Новинки AVI/MKV) [ 1.37 GB ] Его полное помешательство / His Perfect Obsession [2018 HDTVRip] MVO ["Синема УС"] bober100 Скачать
1 | 0

28-11-2019 20:33  

Отключить всю рекламу на сайте

    Дорогой пользователь! Огромная просьба, поблагодарите релизера, оцените раздачу и оставьте свои комментарий, если Вы скачали Его полное помешательство через торрент бесплатно! Внесите свою лепту в развитие PiratBit!
    Комментировать посты могут только пользователи прошедшие не сложную регистрацию
    Показать сообщения:    

    Его полное помешательство через торрент
    Скачать бесплатно Его полное помешательство
    Его полное помешательство скачать торрент
    Его полное помешательство смотреть онлайн
    Cкачать фильм Его полное помешательство бесплатно
    Его полное помешательство скачать торрент в хорошем качестве
    Его полное помешательство смотреть онлайн бесплатно в хорошем качестве


    Вы не можете начинать темы
    Вы не можете отвечать на сообщения
    Вы не можете редактировать свои сообщения
    Вы не можете удалять свои сообщения
    Вы не можете голосовать в опросах
    Вы не можете прикреплять файлы к сообщениям
    Вы можете скачивать файлы