>

8.4

Хороший звук

6.1

MVO

6.4

Line & MVO

1

7.4

1 сезон

6.8

iTunes

7.2

1 сезон

13

6.7

1 сезон

8.3

RePack

30

Deluxe

pack

9.9

Лицензия

ВАЖНО

ИГРА 18+

pack

7.3

RePack

MK11

7.7

RePack

jed

7.8

RePack

fifa19

8.5

RePack

RDR2

RePack

NEED FOR SPEED™ PAYBACK

4 сезон

9 сезон

Бесстыжие 9 сезон

Все сериалы

все сериалы на PB.wtf

RePack

FAR CRY 5

Anonymous, доброй ночи, мы катастрофически не успеваем собрать деньги на оплату серверов, помогите нам пожалуйста 5,10,15р., для нас важна любая помощь . В качестве благодарности мы отключим Вам всю рекламу на сайте (укажите свой ник в строку Ваше имя)!

×
  
Magnet ссылка

Тройной форсаж: Токийский дрифт / The Fast and the Furious: Tokyo Drift (Джастин Лин) [2006, боевик, триллер, криминал, UHD BDRip 2160p] DUB + 2xAVO pb.wtf

Тройной форсаж: Токийский дрифт через торрент pb.wtf

Размер: 16.9 GB | Добавлен: 2 года 11 мес. назад | Торрент скачан:45 раз
Смотреть онлайн Тройной форсаж: Токийский дрифт | Скачать    Ребята, помогите собрать деньги на оплату серверов!!!

03-10-2018 15:25 Тройной форсаж: Токийский дрифт Скачать торрент  

Тройной форсаж: Токийский дрифт / The Fast and the Furious: Tokyo Drift«На улицах Токио слово «скорость» не нуждается в переводе»
Год выпуска: 2006
Страна: США, Германия, Япония
Жанр: боевик, триллер, криминал
Продолжительность: 01:44:14
Перевод: Дублированный, авторский
Субтитры: Русские(Forced, Full), английские
Режиссер: Джастин Лин
В ролях:

Лукас Блэк (Sean Boswell), Бау Вау (Twinkie), Сон Ган (Han), Брайан Ти (D.K.), Натали Келли (Neela), Брайан Гудман (Major Boswell), Джейсон Дж. Тобин (Earl), Кэйко Китагава (Reiko), Сонни Тиба (Uncle Kamata), Леонардо Нам (Morimoto), Закари Ти Брайан (Clay), Никки Гриффин (Cindy - Clay's Girlfriend)
Описание:
Шон Босуэлл — одинокий парень, который хочет казаться профи уличных гонок. Он бесшабашно гоняется по улицам города, пытаясь убежать от жизненных невзгод и наживая себе врагов среди местных властей. Когда Шону грозит тюрьма, его от греха подальше отсылают к отцу — профессиональному военному, который служит на военной базе в Японии.В незнакомой стране, живущей по своим законам, Шон чувствует себя еще большим изгоем. Однако вскоре его американский приятель Твинки знакомит его с миром подпольного дрифт-рейсинга. Раньше Шон просто тупо гонялся по улицам, а здесь перед ним открылся целый мир своеобразного искусства из металла и резины, дороги которого оказались невообразимо круты на поворотах…
Рейтинг:

MPAA: PG-13 - Детям до 13 лет просмотр не желателен
Качество: UHD BDRip 2160p
Формат: MKV
Видео: HEVC HDR, 18.8 Mбит/с, 3840x1608, 23.976 кадр/с
Аудио: Russian: AC3, 48khz, 6ch, 448 kbps-[Dub, Blu-ray CEE]
Аудио: Russian: DTS, 48khz, 6ch, 755 Kb/s-[VO, Немахов]
Аудио: Russian: DTS, 48khz, 6ch, 1509 Kb/s-[VO, Гаврилов]
Аудио: Ukrainian: AC3, 48khz, 2ch, 192 kbps-[MVO, Так Треба Продакшн / Украина]
Аудио: English: DTS, 48khz, 6ch, 1509 Kb/s-Original
Навигация по главам: есть
Complete name : E:\Movies\The.Fast.and.the.Furious.Tokyo.Drift.2006.2160p.UHD.BluRay.x265-SpaceHD13.mkv
Format : Matroska
Format version : Version 4 / Version 2
File size : 16.9 GiB
Duration : 1 h 44 min
Overall bit rate : 23.2 Mb/s
Movie name : UHD 2160 || Release by SpaceHD13
Encoded date : UTC 2018-10-02 19:49:54
Writing application : mkvmerge v27.0.0 ('Metropolis') 64-bit
Writing library : libebml v1.3.6 + libmatroska v1.4.9
Cover : Yes
Attachments : cover.jpg

Video
ID : 1
Format : HEVC
Format/Info : High Efficiency Video Coding
Commercial name : HDR10
Format profile : Main 10@L5.1@High
Codec ID : V_MPEGH/ISO/HEVC
Duration : 1 h 44 min
Bit rate : 18.8 Mb/s
Width : 3 840 pixels
Height : 1 608 pixels
Display aspect ratio : 2.40:1
Frame rate mode : Constant
Frame rate : 23.976 (24000/1001) FPS
Color space : YUV
Chroma subsampling : 4:2:0 (Type 2)
Bit depth : 10 bits
Bits/(Pixel*Frame) : 0.127
Stream size : 13.7 GiB (81%)
Title : The.Fast.and.the.Furious.Tokyo.Drift.2006.2160p.UHD.BluRay.x265-SpaceHD13
Writing library : x265 2.8+66-88ee12651e30:[Windows][GCC 6.3.0][64 bit] 10bit
Encoding settings : cpuid=1111039 / frame-threads=4 / numa-pools=20 / wpp / no-pmode / no-pme / no-psnr / no-ssim / log-level=2 / input-csp=1 / input-res=3840x1608 / interlace=0 / total-frames=149747 / level-idc=51 / high-tier=1 / uhd-bd=0 / ref=4 / no-allow-non-conformance / repeat-headers / annexb / aud / hrd / info / hash=0 / no-temporal-layers / no-open-gop / min-keyint=1 / keyint=24 / gop-lookahead=0 / bframes=4 / b-adapt=2 / b-pyramid / bframe-bias=0 / rc-lookahead=25 / lookahead-slices=4 / scenecut=40 / radl=0 / no-intra-refresh / ctu=64 / min-cu-size=8 / rect / no-amp / max-tu-size=32 / tu-inter-depth=1 / tu-intra-depth=1 / limit-tu=0 / rdoq-level=2 / dynamic-rd=0.00 / no-ssim-rd / signhide / no-tskip / nr-intra=0 / nr-inter=0 / no-constrained-intra / no-strong-intra-smoothing / max-merge=3 / limit-refs=3 / limit-modes / me=3 / subme=3 / merange=57 / temporal-mvp / weightp / no-weightb / no-analyze-src-pics / deblock=-3:-3 / no-sao / no-sao-non-deblock / rd=4 / no-early-skip / rskip / no-fast-intra / no-tskip-fast / no-cu-lossless / no-b-intra / no-splitrd-skip / rdpenalty=0 / psy-rd=2.00 / psy-rdoq=1.00 / no-rd-refine / no-lossless / cbqpoffs=0 / crqpoffs=0 / rc=crf / crf=17.0 / qcomp=0.60 / qpstep=4 / stats-write=0 / stats-read=0 / vbv-maxrate=160000 / vbv-bufsize=160000 / vbv-init=0.9 / crf-max=0.0 / crf-min=0.0 / ipratio=1.40 / pbratio=1.30 / aq-mode=1 / aq-strength=1.00 / cutree / zone-count=0 / no-strict-cbr / qg-size=32 / no-rc-grain / qpmax=69 / qpmin=0 / no-const-vbv / sar=1 / overscan=0 / videoformat=5 / range=0 / colorprim=9 / transfer=16 / colormatrix=9 / chromaloc=1 / chromaloc-top=2 / chromaloc-bottom=2 / display-window=0 / master-display=G(13250,34500)B(7500,3000)R(34000,16000)WP(15635,16450)L(10000000,50) / max-cll=793,73 / min-luma=0 / max-luma=1023 / log2-max-poc-lsb=8 / vui-timing-info / vui-hrd-info / slices=1 / no-opt-qp-pps / no-opt-ref-list-length-pps / no-multi-pass-opt-rps / scenecut-bias=0.05 / no-opt-cu-delta-qp / no-aq-motion / hdr / hdr-opt / no-dhdr10-opt / no-idr-recovery-sei / analysis-reuse-level=5 / scale-factor=0 / refine-intra=0 / refine-inter=0 / refine-mv=0 / no-limit-sao / ctu-info=0 / no-lowpass-dct / refine-mv-type=0 / copy-pic=1 / max-ausize-factor=1.0 / no-dynamic-refine / no-single-sei
Default : Yes
Forced : No
Color range : Limited
Color primaries : BT.2020
Transfer characteristics : PQ
Matrix coefficients : BT.2020 non-constant
Mastering display color pri : Display P3
Mastering display luminance : min: 0.0050 cd/m2, max: 1000 cd/m2
Maximum Content Light Level : 793 cd/m2
Maximum Frame-Average Light : 73 cd/m2

Audio #1
ID : 2
Format : AC-3
Format/Info : Audio Coding 3
Commercial name : Dolby Digital
Codec ID : A_AC3
Duration : 1 h 44 min
Bit rate mode : Constant
Bit rate : 448 kb/s
Channel(s) : 6 channels
Channel layout : L R C LFE Ls Rs
Sampling rate : 48.0 kHz
Frame rate : 31.250 FPS (1536 SPF)
Bit depth : 16 bits
Compression mode : Lossy
Stream size : 334 MiB (2%)
Title : Dub, Blu-ray CEE
Language : Russian
Service kind : Complete Main
Default : Yes
Forced : No

Audio #2
ID : 3
Format : DTS
Format/Info : Digital Theater Systems
Codec ID : A_DTS
Duration : 1 h 44 min
Bit rate mode : Constant
Bit rate : 755 kb/s
Channel(s) : 6 channels
Channel layout : C L R Ls Rs LFE
Sampling rate : 48.0 kHz
Frame rate : 93.750 FPS (512 SPF)
Bit depth : 24 bits
Compression mode : Lossy
Stream size : 562 MiB (3%)
Title : VO, Немахов
Language : Russian
Default : No
Forced : No

Audio #3
ID : 4
Format : DTS
Format/Info : Digital Theater Systems
Codec ID : A_DTS
Duration : 1 h 44 min
Bit rate mode : Constant
Bit rate : 1 509 kb/s
Channel(s) : 6 channels
Channel layout : C L R Ls Rs LFE
Sampling rate : 48.0 kHz
Frame rate : 93.750 FPS (512 SPF)
Bit depth : 24 bits
Compression mode : Lossy
Stream size : 1.10 GiB (7%)
Title : VO, Гаврилов
Language : Russian
Default : No
Forced : No

Audio #4
ID : 5
Format : AC-3
Format/Info : Audio Coding 3
Commercial name : Dolby Digital
Codec ID : A_AC3
Duration : 1 h 44 min
Bit rate mode : Constant
Bit rate : 192 kb/s
Channel(s) : 2 channels
Channel layout : L R
Sampling rate : 48.0 kHz
Frame rate : 31.250 FPS (1536 SPF)
Bit depth : 16 bits
Compression mode : Lossy
Stream size : 143 MiB (1%)
Title : MVO, Так Треба Продакшн / Украина
Language : Ukrainian
Service kind : Complete Main
Default : No
Forced : No

Audio #5
ID : 6
Format : DTS
Format/Info : Digital Theater Systems
Codec ID : A_DTS
Duration : 1 h 44 min
Bit rate mode : Constant
Bit rate : 1 509 kb/s
Channel(s) : 6 channels
Channel layout : C L R Ls Rs LFE
Sampling rate : 48.0 kHz
Frame rate : 93.750 FPS (512 SPF)
Bit depth : 24 bits
Compression mode : Lossy
Stream size : 1.10 GiB (7%)
Language : English
Default : No
Forced : No

Text #1
ID : 7
Format : PGS
Muxing mode : zlib
Codec ID : S_HDMV/PGS
Codec ID/Info : Picture based subtitle format used on BDs/HD-DVDs
Duration : 1 h 38 min
Bit rate : 199 b/s
Count of elements : 14
Stream size : 145 KiB (0%)
Title : Forced
Language : Russian
Default : Yes
Forced : No

Text #2
ID : 8
Format : PGS
Muxing mode : zlib
Codec ID : S_HDMV/PGS
Codec ID/Info : Picture based subtitle format used on BDs/HD-DVDs
Duration : 1 h 37 min
Bit rate : 26.9 kb/s
Count of elements : 1466
Stream size : 18.8 MiB (0%)
Language : Russian
Default : No
Forced : No

Text #3
ID : 9
Format : PGS
Muxing mode : zlib
Codec ID : S_HDMV/PGS
Codec ID/Info : Picture based subtitle format used on BDs/HD-DVDs
Duration : 1 h 42 min
Bit rate : 23.0 kb/s
Count of elements : 1898
Stream size : 16.8 MiB (0%)
Language : English
Default : No
Forced : No

Menu
00:00:00.000 : en:Main Titles
00:03:04.434 : en:Winner Take All
00:09:43.499 : en:Off the Streets
00:12:10.688 : en:Stick to the Rules
00:16:15.391 : en:First Day in Class
00:20:16.840 : en:My Ride
00:26:36.469 : en:DK Challenge
00:32:56.849 : en:No Choice
00:41:14.305 : en:Represent
00:46:34.833 : en:Trust & Character
00:52:55.255 : en:Feel It
00:58:20.121 : en:Drifting Fate
01:01:46.244 : en:Gaijin
01:05:50.488 : en:For Want
01:08:56.090 : en:It's What We Do
01:16:14.611 : en:My Mess
01:20:31.409 : en:Peaceful Resolution
01:26:53.249 : en:To the Finish
01:34:59.944 : en:An Old Friend
01:37:33.848 : en:End Titles
pb.wtf



Скачать Тройной форсаж: Токийский дрифт через торрент https://c.radikal.ru/c12/1810/77/2adee71cf0f0.png Скачать, смотреть онлайн Тройной форсаж: Токийский дрифт бесплантно в хорошем качестве Описание: Шон Босуэлл — одинокий парень, который хочет казаться профи уличных гонок. Он бесшабашно гоняется по улицам города, пытаясь ... 10 10 3
Торрент: Зарегистрирован [2018-10-03 15:25] · скачан: 45 раз
Статус: √ проверено
Размер: 16.9 GB
Как cкачать? Как скачать Тройной форсаж: Токийский дрифт через торрент | UTorrent

% Раздел Тема Автор DL S | L
Ultra HD (UHD: 2K, 4K, 8K) — видео сверхвысокой чёткости [ 57.82 GB ] Тройной форсаж: Токийский дрифт / The Fast and the Furious: Tokyo Drift [2006 UHD BDRemux 2160p] DUB + 2xAVO sheker187 Скачать
2 | 0

28-11-2019 20:33  

Отключить всю рекламу на сайте

    Дорогой пользователь! Огромная просьба, поблагодарите релизера, оцените раздачу и оставьте свои комментарий, если Вы скачали Тройной форсаж: Токийский дрифт через торрент бесплатно!
    Комментировать посты могут только пользователи прошедшие не сложную регистрацию
    Показать сообщения:    

    Тройной форсаж: Токийский дрифт через торрент
    Скачать бесплатно Тройной форсаж: Токийский дрифт
    Тройной форсаж: Токийский дрифт скачать торрент
    Тройной форсаж: Токийский дрифт смотреть онлайн
    Cкачать фильм Тройной форсаж: Токийский дрифт бесплатно
    Тройной форсаж: Токийский дрифт скачать торрент в хорошем качестве
    Тройной форсаж: Токийский дрифт смотреть онлайн бесплатно в хорошем качестве


    Вы не можете начинать темы
    Вы не можете отвечать на сообщения
    Вы не можете редактировать свои сообщения
    Вы не можете удалять свои сообщения
    Вы не можете голосовать в опросах
    Вы не можете прикреплять файлы к сообщениям
    Вы можете скачивать файлы