Ссылка на приватное зеркало нашего сайта всего за 1$. Внимание количество ограничено!!!

2 сезон

iTunes

1 сезон

1

2 сезон

2 сезон

iTunes

1 сезон

RePack

30

Новинка

ВАЖНО

ИГРА 18+

pack

RePack

MK11
pack

Забери бонус

RePack

jed

!!Акция!!

Alien_Rage

RePack

fifa19

RePack

Assassins Creed: Odyssey

RePack

NEED FOR SPEED™ PAYBACK

4 сезон

9 сезон

Бесстыжие 9 сезон

Все сериалы

все сериалы на PB.wtf

RePack

FAR CRY 5
  

Чокнутая / Re loca (Мартино Сайделис) [2018, комедия, WEB-DL 1080p] MVO [HDRezka Studio] pb.wtf

Чокнутая через торрент pb.wtf

Раздают: 1 [ 0 KB/s ]
Размер: 3.91 GB | Добавлен: 1 год 3 мес. назад | Торрент скачан:166 раз
Скачать  

03-10-2018 17:22 Чокнутая Скачать торрент  

Чокнутая / Re loca
Год выпуска: 2018
Страна: Аргентина
Жанр: комедия
Продолжительность: 01:35:00
Перевод: Профессиональный (многоголосый) | HDRezka Studio
Субтитры: Русские (форс.)

Режиссер: Мартино Сайделис

rating

В ролях: Наталия Орейро, Фернан Мирас, Диего Торрес, Химена Аккарди, Пилар Гамбоа, Уго Арана, Маго Радагаст, Малена Санчес, Валерия Луис, Диего Перетти

Описание: В фильме рассказывается история женщины, которая начинает говорить всё, что она на самом деле думает, и делать всё, о чем мечтают люди.

Качество: WEB-DL 1080p
Формат: MKV

Видео: MPEG-4 AVC, 5324 Кбит/с, 1920x796
Аудио: Русский (AАC, 2 ch, 176 Кбит/с)
Аудио: испанский (AС3, 6 ch, 384 Кбит/с)
скриншот  скриншот  скриншот  скриншот  скриншот  

General
Unique ID : 255936493673863619238902517666675773490 (0xC08B9361422C99D9ADD3DA4D10915032)
Complete name : G:\Re.loca.2018.WEB-DL.1080p.mkv
Format : Matroska
Format version : Version 4 / Version 2
File size : 3.91 GiB
Duration : 1 h 34 min
Overall bit rate : 5 886 kb/s
Encoded date : UTC 2019-08-28 06:55:03
Writing application : mkvmerge v20.0.0 ('I Am The Sun') 64-bit
Writing library : libebml v1.3.5 + libmatroska v1.4.8

Video
ID : 1
Format : AVC
Format/Info : Advanced Video Codec
Format profile : High@L4
Format settings : CABAC / 3 Ref Frames
Format settings, CABAC : Yes
Format settings, RefFrames : 3 frames
Format settings, GOP : M=3, N=24
Codec ID : V_MPEG4/ISO/AVC
Duration : 1 h 34 min
Bit rate : 5 324 kb/s
Width : 1 920 pixels
Height : 796 pixels
Display aspect ratio : 2.40:1
Frame rate mode : Constant
Frame rate : 23.976 (24000/1001) FPS
Color space : YUV
Chroma subsampling : 4:2:0
Bit depth : 8 bits
Scan type : Progressive
Bits/(Pixel*Frame) : 0.145
Stream size : 3.53 GiB (90%)
Language : Spanish
Default : Yes
Forced : No
Color range : Limited
Color primaries : BT.709
Transfer characteristics : BT.709
Matrix coefficients : BT.709

Audio #1
ID : 2
Format : AAC
Format/Info : Advanced Audio Codec
Format profile : LC
Codec ID : A_AAC-2
Duration : 1 h 34 min
Bit rate : 176 kb/s
Channel(s) : 2 channels
Channel positions : Front: L R
Sampling rate : 48.0 kHz
Frame rate : 46.875 FPS (1024 SPF)
Compression mode : Lossy
Stream size : 119 MiB (3%)
Title : MVO HDRezka Studio
Language : Russian
Default : No
Forced : No

Audio #2
ID : 3
Format : AC-3
Format/Info : Audio Coding 3
Codec ID : A_AC3
Duration : 1 h 34 min
Bit rate mode : Constant
Bit rate : 384 kb/s
Channel(s) : 6 channels
Channel positions : Front: L C R, Side: L R, LFE
Sampling rate : 48.0 kHz
Frame rate : 31.250 FPS (1536 SPF)
Bit depth : 16 bits
Compression mode : Lossy
Stream size : 261 MiB (7%)
Language : Spanish
Service kind : Complete Main
Default : Yes
Forced : No

Text
ID : 4
Format : UTF-8
Codec ID : S_TEXT/UTF8
Codec ID/Info : UTF-8 Plain Text
Duration : 1 h 26 min
Bit rate : 3 b/s
Count of elements : 40
Stream size : 2.26 KiB (0%)
Title : forced
Language : Russian
Default : Yes
Forced : Yes

Menu
00:00:00.000 : en:1
00:09:48.000 : en:2
00:19:53.000 : en:3
00:31:35.000 : en:4
00:41:42.000 : en:5
00:51:31.000 : en:6
01:03:18.000 : en:7
01:13:27.000 : en:8
01:21:10.000 : en:9
01:29:02.000 : en:10
pb.wtf



Скачать Чокнутая через торрент http://img11.lostpic.net/2018/10/03/224406800ffd8e3210074d47ad5371d8.jpg Скачать фильм Чокнутая через торрент бесплантно в хорошем качестве Описание: В фильме рассказывается история женщины, которая начинает говорить всё, что она на самом деле думает, и делать всё, о чем мечтают ... 9.1 10 10
Торрент: Зарегистрирован [2019-08-28 13:57] · скачан: 166 раз
Статус: T временная
Размер: 3.91 GB
Как cкачать? Как скачать Чокнутая через торрент | qTorrent

% Раздел Тема Автор DL S | L
Фильмы (WEB-DL 720p, 1080p) [ 4.17 GB ] Супер крейзи / Чокнутая / Re loca [2018 WEB-DL 1080p] + [MVO] killermax2013 Скачать
4 | 0
# Фильмы [HD 720p, 1080p] (Хороший звук DUB, MVO) [ 1.44 GB ] Чокнутая / Re loca [2018 HDRip 720p] [MVO] killermax2013 Скачать
1 | 0

28-11-2019 20:33  

Отключить всю рекламу на сайте

    Дорогой пользователь! Огромная просьба, поблагодарите релизера, оцените раздачу и оставьте свои комментарий, если Вы скачали Чокнутая через торрент бесплатно! Внесите свою лепту в развитие PiratBit!
    Комментировать посты могут только пользователи прошедшие не сложную регистрацию
    Показать сообщения:    

    Чокнутая через торрент
    Скачать бесплатно Чокнутая
    Чокнутая скачать торрент
    Чокнутая смотреть онлайн
    Cкачать фильм Чокнутая бесплатно
    Чокнутая скачать торрент в хорошем качестве
    Чокнутая смотреть онлайн бесплатно в хорошем качестве


    Вы не можете начинать темы
    Вы не можете отвечать на сообщения
    Вы не можете редактировать свои сообщения
    Вы не можете удалять свои сообщения
    Вы не можете голосовать в опросах
    Вы не можете прикреплять файлы к сообщениям
    Вы можете скачивать файлы