Ссылка на приватное зеркало всего за 1$. Внимание количество ограничено!!!

OK

1+1

iTunes

мы

OK

1

WEB-DLRip

Джокер

Пифагор

Ведьмак / The Witcher сериал

Лицензия

ПШазам

ОК

Оно 2

iTunes

30
pack

Вам бонус

ВАЖНО

!!Акция!!

Alien_RageХит недели

RePack

Resident Evil 21

ИГРА 18+

pack

RePack

jed

RePack

fifa19

RePack

Assassins Creed: Odyssey

RePack

NEED FOR SPEED™ PAYBACK

4 сезон

9 сезон

Бесстыжие 9 сезон

Все сериалы

все сериалы на PB.wtf

RePack

FAR CRY 5
  

Великий Будда + / The Great Buddha + (Хуан Синьяо) [2017, драма, комедия, криминал, BDRip 720p] MVO ["Синема УС"] pb.wtf

Великий Будда + через торрент pb.wtf

Размер: 5.04 GB | Добавлен: 1 год 3 мес. назад | Торрент скачан:21 раз
Скачать  

03-10-2018 17:35 Великий Будда + Скачать торрент  

Великий Будда + / The Great Buddha +Год выпуска: 2017
Страна: Тайвань
Жанр: драма, комедия, криминал
Продолжительность: 01:45:57
Перевод: Любительский (многоголосый) | "Синема УС"
Субтитры: отсутствуют

Режиссер: Хуан Синьяо

rating

В ролях:

Крес Чуан, Бамбу Чэнь, Леон Дай, Майкл Чан, Чэнь Ивэнь, На До, Тин Колинь, Ли Юн Фон, Юэ-Синь Чу, Ж.К. Лей

Описание:

Огурец - охранник на фабрике по выпуску бронзовых Будд с гордым названием «Великий Будда +». Никаких особенных занятий у него нет, кроме ухода за больной матерью и просмотра эротических журналов, которые приносит ему приятель Пупок. Однажды от нечего делать они решают посмотреть записи с видеорегистратора машины директора производства, и подглядывание за жизнью обеспеченного человека, даже с такого невыразительного ракурса, затягивает пролетариев.

Качество: BDRip 720p
Формат: MKV

Видео: h.264,6 354 kb/s, 1280x690
Аудио#1: Русский (AC3, 2 ch, 448 Кбит/с)
скриншот  скриншот  скриншот  

Общее
Уникальный идентификатор : 171047327649491687121443499977527166166 (0x80AE845B9A78F60D992E54B57B0A84D6)
Полное имя : D:\The.Great.Buddha+.2017.P.BDRip.72Op_KOSHARA.mkv
Формат : Matroska
Версия формата : Version 2
Размер файла : 5,04 Гбайт
Продолжительность : 1 ч. 45 м.
Режим общего битрейта : Переменный
Общий поток : 6804 Кбит/сек
Дата кодирования : UTC 2018-10-02 23:28:54
Программа кодирования : mkvmerge v8.3.0 ('Over the Horizon') 64bit
Библиотека кодирования : libebml v1.3.1 + libmatroska v1.4.2

Видео
Идентификатор : 1
Формат : AVC
Формат/Информация : Advanced Video Codec
Профиль формата : High@L4.1
Параметр CABAC формата : Да
Параметр RefFrames формата : 4 кадра
Идентификатор кодека : V_MPEG4/ISO/AVC
Продолжительность : 1 ч. 45 м.
Вид битрейта : Переменный
Битрейт : 6354 Кбит/сек
Максимальный битрейт : 7400 Кбит/сек
Ширина : 1280 пикселей
Высота : 690 пикселей
Соотношение сторон : 1,85:1
Режим частоты кадров : Постоянный
Частота кадров : 23,976 (24000/1001) кадра/сек
Стандарт вещания : Component
Цветовое пространство : YUV
Субдискретизация насыщенности : 4:2:0
Битовая глубина : 8 бит
Тип развёртки : Прогрессивная
Бит/(Пиксели*Кадры) : 0.294
Размер потока : 4,60 Гбайт (91%)
Default : Да
Forced : Нет
Цветовой диапазон : Limited
Основные цвета : BT.709
Характеристики трансфера : BT.709
Коэффициенты матрицы : BT.709

Аудио
Идентификатор : 2
Формат : AC-3
Формат/Информация : Audio Coding 3
Расширение режима : CM (complete main)
Параметр Endianness формата : Big
Идентификатор кодека : A_AC3
Продолжительность : 1 ч. 45 м.
Вид битрейта : Постоянный
Битрейт : 448 Кбит/сек
Каналы : 2 канала
Расположение каналов : Front: L R
Частота : 48,0 КГц
Частота кадров : 31,250 кадров/сек (1536 spf)
Метод сжатия : С потерями
Размер потока : 340 Мбайт (7%)
Default : Да
Forced : Нет

pb.wtf



Скачать Великий Будда + через торрент http://img11.lostpic.net/2018/10/03/9725cf2bf379deebef2b9ae1a056df89.jpg Скачать фильм Великий Будда + через торрент бесплантно в хорошем качестве Описание: Огурец - охранник на фабрике по выпуску бронзовых Будд с гордым названием «Великий Будда +». Никаких особенных занятий у него ... 10 10 2
Торрент: Зарегистрирован [2018-10-03 17:35] · скачан: 21 раз
Статус: # сомнительно
Размер: 5.04 GB
Как cкачать? Как скачать Великий Будда + через торрент | qTorrent

% Раздел Тема Автор DL S | L
T Фильмы (мультфильмы) cо спонсором показа (Новинки AVI/MKV) [ 1.37 GB ] Великий Будда + / The Great Buddha + [2017 HDRip] MVO ["Синема УС"] bober100 Скачать
1 | 0

28-11-2019 20:33  

Отключить всю рекламу на сайте

    Дорогой пользователь! Огромная просьба, поблагодарите релизера, оцените раздачу и оставьте свои комментарий, если Вы скачали Великий Будда + через торрент бесплатно! Внесите свою лепту в развитие PiratBit!
    Комментировать посты могут только пользователи прошедшие не сложную регистрацию
    Показать сообщения:    

    Великий Будда + через торрент
    Скачать бесплатно Великий Будда +
    Великий Будда + скачать торрент
    Великий Будда + смотреть онлайн
    Cкачать фильм Великий Будда + бесплатно
    Великий Будда + скачать торрент в хорошем качестве
    Великий Будда + смотреть онлайн бесплатно в хорошем качестве


    Вы не можете начинать темы
    Вы не можете отвечать на сообщения
    Вы не можете редактировать свои сообщения
    Вы не можете удалять свои сообщения
    Вы не можете голосовать в опросах
    Вы не можете прикреплять файлы к сообщениям
    Вы можете скачивать файлы