Ссылка на приватное зеркало всего за 1$. Внимание количество ограничено!!!

OK

1+1

iTunes

мы

OK

1

WEB-DLRip

Джокер

Пифагор

Ведьмак / The Witcher сериал

iTunes

ПШазам

ОК

Оно 2

iTunes

30
pack

Вам бонус

ВАЖНО

!!Акция!!

Alien_RageХит недели

RePack

Resident Evil 21

ИГРА 18+

pack

RePack

jed

RePack

fifa19

RePack

Assassins Creed: Odyssey

RePack

NEED FOR SPEED™ PAYBACK

4 сезон

9 сезон

Бесстыжие 9 сезон

Все сериалы

все сериалы на PB.wtf

RePack

FAR CRY 5
  

Её украденное прошлое / Her Stolen Past (Пенелопа Бюйтенхайс) [2018, Триллер, WEB-DL 720p] MVO ["Синема УС"] pb.wtf

Её украденное прошлое через торрент pb.wtf

Размер: 3.06 GB | Добавлен: 1 год 3 мес. назад | Торрент скачан:21 раз
Скачать  

03-10-2018 17:57 Её украденное прошлое Скачать торрент  

Её украденное прошлое / Her Stolen PastГод выпуска: 2018
Страна: Канада
Жанр: Триллер
Продолжительность: 01:30:06
Перевод: Любительский (многоголосый) | "Синема УС"
Субтитры: отсутствуют

Режиссер: Пенелопа Бюйтенхайс

rating

В ролях:

Шанис Бэнтон, Дарлен Кук, Джоэль Гань, Барбара Ив Харрис, Саманта Манро, Тони Наппо, Ким Робертс, Дьюшэйн Уильямс, Морис Дин Винт, Майкл Ксавьер

Описание:

После того, как её мать убивают при загадочных обстоятельствах, Соня находит среди её вещей свидетельство о рождении девочки, похищенной двадцать пять лет, назад и нанимает частного детектива, чтобы найти убийц и узнать, как пропавшая девочка связана с её семьёй.

Качество: WEB-DL 720p
Формат: MKV

Видео: h.264, 4 482 kb/s, 1280x720
Аудио#1: Русский, (AC3, 2 ch, 384 Кбит/с)
скриншот  скриншот  скриншот  

Общее
Уникальный идентификатор : 171462051790146779419327903796564362532 (0x80FE63D62DFC9182AB2950CBEE448524)
Полное имя : D:\Her.Stolen.Past.2018.P.WEB-DL.72Op_KOSHARA.mkv
Формат : Matroska
Версия формата : Version 2
Размер файла : 3,06 Гбайт
Продолжительность : 1 ч. 30 м.
Режим общего битрейта : Переменный
Общий поток : 4868 Кбит/сек
Дата кодирования : UTC 2018-10-03 01:49:26
Программа кодирования : mkvmerge v8.3.0 ('Over the Horizon') 64bit
Библиотека кодирования : libebml v1.3.1 + libmatroska v1.4.2

Видео
Идентификатор : 1
Формат : AVC
Формат/Информация : Advanced Video Codec
Профиль формата : High@L4.1
Параметр CABAC формата : Да
Параметр RefFrames формата : 4 кадра
Идентификатор кодека : V_MPEG4/ISO/AVC
Продолжительность : 1 ч. 30 м.
Вид битрейта : Переменный
Битрейт : 4482 Кбит/сек
Максимальный битрейт : 5000 Кбит/сек
Ширина : 1280 пикселей
Высота : 720 пикселей
Соотношение сторон : 16:9
Режим частоты кадров : Постоянный
Частота кадров : 23,976 (24000/1001) кадра/сек
Стандарт вещания : Component
Цветовое пространство : YUV
Субдискретизация насыщенности : 4:2:0
Битовая глубина : 8 бит
Тип развёртки : Прогрессивная
Бит/(Пиксели*Кадры) : 0.199
Размер потока : 2,76 Гбайт (90%)
Default : Да
Forced : Нет
Цветовой диапазон : Limited
Основные цвета : BT.709
Характеристики трансфера : BT.709
Коэффициенты матрицы : BT.709

Аудио
Идентификатор : 2
Формат : AC-3
Формат/Информация : Audio Coding 3
Расширение режима : CM (complete main)
Параметр Endianness формата : Big
Идентификатор кодека : A_AC3
Продолжительность : 1 ч. 30 м.
Вид битрейта : Постоянный
Битрейт : 384 Кбит/сек
Каналы : 2 канала
Расположение каналов : Front: L R
Частота : 48,0 КГц
Частота кадров : 31,250 кадров/сек (1536 spf)
Метод сжатия : С потерями
Размер потока : 248 Мбайт (8%)
Default : Да
Forced : Нет

pb.wtf



Скачать Её украденное прошлое через торрент http://img11.lostpic.net/2018/10/03/649e96f9702bdef37370e48b4e0fda95.jpg Скачать фильм Её украденное прошлое через торрент бесплантно в хорошем качестве Описание: После того, как её мать убивают при загадочных обстоятельствах, Соня находит среди её вещей свидетельство о рождении девочки, ... 10 10 2
Торрент: Зарегистрирован [2018-10-03 17:57] · скачан: 21 раз
Статус: T временная
Размер: 3.06 GB
Как cкачать? Как скачать Её украденное прошлое через торрент | qTorrent

% Раздел Тема Автор DL S | L
T Фильмы (мультфильмы) cо спонсором показа (Новинки AVI/MKV) [ 1.37 GB ] Её украденное прошлое / Her Stolen Past [2018 WEB-DLRip] MVO ["Синема УС"] bober100 Скачать
1 | 0

28-11-2019 20:33  

Отключить всю рекламу на сайте

    Дорогой пользователь! Огромная просьба, поблагодарите релизера, оцените раздачу и оставьте свои комментарий, если Вы скачали Её украденное прошлое через торрент бесплатно! Внесите свою лепту в развитие PiratBit!
    Комментировать посты могут только пользователи прошедшие не сложную регистрацию
    Показать сообщения:    

    Её украденное прошлое через торрент
    Скачать бесплатно Её украденное прошлое
    Её украденное прошлое скачать торрент
    Её украденное прошлое смотреть онлайн
    Cкачать фильм Её украденное прошлое бесплатно
    Её украденное прошлое скачать торрент в хорошем качестве
    Её украденное прошлое смотреть онлайн бесплатно в хорошем качестве


    Вы не можете начинать темы
    Вы не можете отвечать на сообщения
    Вы не можете редактировать свои сообщения
    Вы не можете удалять свои сообщения
    Вы не можете голосовать в опросах
    Вы не можете прикреплять файлы к сообщениям
    Вы можете скачивать файлы