новый адрес
Мега распродажа FORZA HORIZON 4 ULTIMATE+ВСЕ DLC+ОНЛАЙН всего за 499р. 349 руб. (супер цена). Внимание количество ограничено!!!

iTunes

1+1

iTunes

мы

iTunes

1

iTunes

Чернобыль

iTunes

Ральф против интернета

Лицензия

ПШазам

Лицензия

Оно 2

Лицензия

30
pack

ВАЖНО

!!Акция!!

Alien_RageХит недели

RePack

Resident Evil 21

ИГРА 18+

pack

RePack

Metro:Exodus

!!Акция!!

Alien_Rage

RePack

fifa19

RePack

Assassins Creed: Odyssey

RePack

NEED FOR SPEED™ PAYBACK

3 сезон

9 сезон

Бесстыжие 9 сезон

Все сериалы

все сериалы на PB.wtf

RePack

FAR CRY 5
Ребята, катастрофически не хватает 1900р. для оплаты серверов за Октябрь (всвязи с блокировками трафик упал в 3 раза), 1-2р., выручайте.
  

Антарктическая повесть / Серия 1-3 из 3 (Сергей Тарасов) [1980 г., Драма, приключения, экранизация, SATRip-AVC] pb.wtf

Антарктическая повесть через торрент pb.wtf

Размер: 3.73 GB | Добавлен: 1 год 1 мес. назад | Торрент скачан:16 раз
Скачать  

03-10-2018 19:08 Антарктическая повесть Скачать торрент  

Антарктическая повесть
Год выпуска: 1980
Страна: СССР
Жанр: Драма, приключения, экранизация
Продолжительность: 3 х ~ 01:06:33
Субтитры: Отсутствуют

Режиссер: Сергей Тарасов

rating

В ролях: Константин Григорьев, Анатолий Ромашин, Александр Вдовин, Александр Белявский, Борис Хмельницкий, Альгимантас Масюлис, Борис Химичев, Валерий Малышев, Харий Швейц, Юрий Назаров, Иван Тельнов, Виктор Шульгин, Наталья Фатеева

Описание: По мотивам повести В. Санина. События фильма происходят в начале шестидесятых годов XX века, когда только начиналось освоение Антарктиды и ледовый континент был полон тайн и загадок. Группа полярников перед отправкой на родину получает задание: расконсервировать внутриконтинентальную станцию «Восток».

Качество: SATRip-AVC
Формат: MKV
Видео кодек: AVC
Аудио кодек: AC3
Видео: AVC, 714x562@768x562 , 25.0fps, 2500 Kbps
Аудио#1: AC3 , 2 ch , 48 kHz , 192 kbps
скриншот   скриншот   скриншот   скриншот   скриншот   скриншот  

Общее
Уникальный идентификатор : 207060738258037249345130612381078771351 (0x9BC67296AFFD626C8061F22575DBD697)
Полное имя : Антарктическая.повесть.1980.SATRip-AVC.KORSAR.mkv
Формат : Matroska
Версия формата : Version 2
Размер файла : 1,25 Гбайт
Продолжительность : 1 ч. 6 м.
Общий поток : 2694 Кбит/сек
Дата кодирования : UTC 2014-08-30 01:30:39
Программа кодирования : mkvmerge v5.2.0 ('I can't explain') built on Dec 18 2011 18:12:03
Библиотека кодирования : libebml v1.2.3 + libmatroska v1.3.0

Видео
Идентификатор : 1
Формат : AVC
Формат/Информация : Advanced Video Codec
Профиль формата : High@L4.1
Параметр CABAC формата : Да
Параметр RefFrames формата : 15 кадров
Идентификатор кодека : V_MPEG4/ISO/AVC
Продолжительность : 1 ч. 6 м.
Битрейт : 2500 Кбит/сек
Ширина : 714 пикселей
Высота : 562 пикселя
Соотношение сторон : 4:3
Соотношение сторон в оригинале : 4:3
Режим частоты кадров : Постоянный
Частота кадров : 25,000 кадров/сек
Цветовое пространство : YUV
Субдискретизация насыщенности : 4:2:0
Битовая глубина : 8 бит
Тип развёртки : Прогрессивная
Бит/(Пиксели*Кадры) : 0.249
Размер потока : 1,14 Гбайт (91%)
Библиотека кодирования : x264 core 142 r2431 ac76440
Настройки программы : cabac=1 / ref=15 / deblock=1:-2:-2 / analyse=0x3:0x133 / me=umh / subme=10 / psy=1 / psy_rd=1.10:0.20 / mixed_ref=1 / me_range=24 / chroma_me=1 / trellis=2 / 8x8dct=1 / cqm=0 / deadzone=21,11 / fast_pskip=0 / chroma_qp_offset=-3 / threads=12 / lookahead_threads=2 / sliced_threads=0 / nr=0 / decimate=0 / interlaced=0 / bluray_compat=0 / constrained_intra=0 / bframes=7 / b_pyramid=2 / b_adapt=2 / b_bias=0 / direct=3 / weightb=1 / open_gop=0 / weightp=2 / keyint=250 / keyint_min=25 / scenecut=40 / intra_refresh=0 / rc=2pass / mbtree=0 / bitrate=2500 / ratetol=1.0 / qcomp=0.65 / qpmin=0 / qpmax=39 / qpstep=4 / cplxblur=20.0 / qblur=0.5 / ip_ratio=1.40 / pb_ratio=1.30 / aq=1:1.00
Язык : English
Default : Да
Forced : Нет
Цветовой диапазон : Limited
Основные цвета : BT.601 PAL
Характеристики трансфера : BT.470 System B, BT.470 System G
Коэффициенты матрицы : BT.601

Аудио
Идентификатор : 2
Формат : AC-3
Формат/Информация : Audio Coding 3
Параметр Endianness формата : Big
Идентификатор кодека : A_AC3
Продолжительность : 1 ч. 6 м.
Вид битрейта : Постоянный
Битрейт : 192 Кбит/сек
Каналы : 2 канала
Расположение каналов : Front: L R
Частота : 48,0 КГц
Частота кадров : 31,250 кадров/сек (1536 SPF)
Битовая глубина : 16 бит
Метод сжатия : С потерями
Задержка видео : 20 мс.
Размер потока : 91,4 Мбайт (7%)
Язык : Russian
Default : Да
Forced : Нет

pb.wtf



Скачать Антарктическая повесть через торрент http://pic1.kartinco.top/images/11/akf3u.jpg Скачать фильм Антарктическая повесть через торрент бесплантно в хорошем качестве Описание: По мотивам повести В. Санина. События фильма происходят в начале шестидесятых годов XX века, когда только начиналось освоение ... 10 10 1
Info! Золотая раздача, скачанное не засчитывается.
Торрент: Зарегистрирован [2018-10-03 19:08] · скачан: 16 раз
Статус: √ проверено
Размер: 3.73 GB
Как cкачать? Как скачать Антарктическая повесть через торрент | qTorrent


>> Регистрируемся здесь <<






Отзывы и комментарии о схеме читаем и пишем здесь: ---> Отзывы и комментарии о схеме

Новые благодарочки в телеграм довольных пользователей:
скриншот   скриншот   скриншот   скриншот   скриншот
    Дорогой пользователь! Огромная просьба, поблагодарите релизера, оцените раздачу и оставьте свои комментарий, если Вы скачали Антарктическая повесть через торрент бесплатно! Внесите свою лепту в развитие PiratBit!
    Комментировать посты могут только пользователи прошедшие не сложную регистрацию
    Показать сообщения:    

    Антарктическая повесть через торрент
    Скачать бесплатно Антарктическая повесть
    Антарктическая повесть скачать торрент
    Антарктическая повесть смотреть онлайн
    Cкачать фильм Антарктическая повесть бесплатно
    Антарктическая повесть скачать торрент в хорошем качестве
    Антарктическая повесть смотреть онлайн бесплатно в хорошем качестве


    Вы не можете начинать темы
    Вы не можете отвечать на сообщения
    Вы не можете редактировать свои сообщения
    Вы не можете удалять свои сообщения
    Вы не можете голосовать в опросах
    Вы не можете прикреплять файлы к сообщениям
    Вы можете скачивать файлы