Ссылка на приватное зеркало всего за 1$. Внимание количество ограничено!!!

iTunes

iTunes

iTunes

1

iTunes

iTunes

iTunes

WEBRip

iTunes

30
pack

$ от Little Big

ВАЖНО

!!Акция!!

Alien_RageХит недели

RePack

Resident Evil 21

ИГРА 18+

pack

RePack

jed

!!Акция!!

Alien_Rage

RePack

fifa19

RePack

Assassins Creed: Odyssey

RePack

NEED FOR SPEED™ PAYBACK

4 сезон

9 сезон

Бесстыжие 9 сезон

Все сериалы

все сериалы на PB.wtf

RePack

FAR CRY 5
  

Над землёй / Above Ground (Томми Реннье) [2017, Триллер, драма, криминал, WEB-DL 720p] MVO ["Синема УС"] pb.wtf

Над землёй через торрент pb.wtf

Размер: 3.18 GB | Добавлен: 1 год 10 мес. назад | Торрент скачан:40 раз
Скачать  

03-10-2018 19:33 Над землёй Скачать торрент  

Над землёй / Above Ground Год выпуска: 2017
Страна: США
Жанр: Триллер, драма, криминал
Продолжительность: 01:33:11
Перевод: Любительский (многоголосый) | "Синема УС"
Субтитры: отсутствуют

Режиссер: Томми Реннье

rating

В ролях:

Клейн Кроуфорд, М. Я. Браккин, Хезер Руп, Кен Хадсон Кэмпбелл, Роберт Лишок, Энди Линн Боттрелл, Тодд Гилленардо, Дикон Вильямс, Рейган Дрейк, Джерри-Мак Джонстон

Описание:

Чтобы заработать деньги на усновление ребёнка, Тэд бросает работу и соглашается участвовать в торговле наркотиками, замаскированными под таблетки для похудения. Но ситуация выходит из под контроля, когда он становится свидетелем убийства поставщиков и понимает, что его чокнутый босс хочет избавиться от него, чтобы замести следы.

Качество: WEB-DL 720p
Формат: MKV

Видео: h.264,4 495 kb/s, 1280x544
Аудио#1: Русский, (AC3, 2 ch, 384 Кбит/с)
скриншот  скриншот  скриншот  

Общее
Уникальный идентификатор : 195944031245035087408098969700841734094 (0x9369729DC511B7B28AA0453160F2BFCE)
Полное имя : D:\Above.Ground.2O17.P.WEB-DL.72Op_KOSHARA.mkv
Формат : Matroska
Версия формата : Version 2
Размер файла : 3,18 Гбайт
Продолжительность : 1 ч. 33 м.
Режим общего битрейта : Переменный
Общий поток : 4881 Кбит/сек
Дата кодирования : UTC 2018-10-03 02:41:01
Программа кодирования : mkvmerge v8.3.0 ('Over the Horizon') 64bit
Библиотека кодирования : libebml v1.3.1 + libmatroska v1.4.2

Видео
Идентификатор : 1
Формат : AVC
Формат/Информация : Advanced Video Codec
Профиль формата : High@L4.1
Параметр CABAC формата : Да
Параметр RefFrames формата : 4 кадра
Идентификатор кодека : V_MPEG4/ISO/AVC
Продолжительность : 1 ч. 33 м.
Вид битрейта : Переменный
Битрейт : 4495 Кбит/сек
Максимальный битрейт : 5000 Кбит/сек
Ширина : 1280 пикселей
Высота : 544 пикселя
Соотношение сторон : 2,35:1
Режим частоты кадров : Постоянный
Частота кадров : 23,976 (24000/1001) кадра/сек
Стандарт вещания : Component
Цветовое пространство : YUV
Субдискретизация насыщенности : 4:2:0
Битовая глубина : 8 бит
Тип развёртки : Прогрессивная
Бит/(Пиксели*Кадры) : 0.264
Размер потока : 2,86 Гбайт (90%)
Default : Да
Forced : Нет
Цветовой диапазон : Limited
Основные цвета : BT.709
Характеристики трансфера : BT.709
Коэффициенты матрицы : BT.709

Аудио
Идентификатор : 2
Формат : AC-3
Формат/Информация : Audio Coding 3
Расширение режима : CM (complete main)
Параметр Endianness формата : Big
Идентификатор кодека : A_AC3
Продолжительность : 1 ч. 33 м.
Вид битрейта : Постоянный
Битрейт : 384 Кбит/сек
Каналы : 2 канала
Расположение каналов : Front: L R
Частота : 48,0 КГц
Частота кадров : 31,250 кадров/сек (1536 spf)
Метод сжатия : С потерями
Размер потока : 256 Мбайт (8%)
Default : Да
Forced : Нет

pb.wtf



Скачать Над землёй через торрент http://img11.lostpic.net/2018/10/03/88cf8916f587dc5b6fddc09f37173429.jpg Скачать фильм Над землёй через торрент бесплантно в хорошем качестве Описание: Чтобы заработать деньги на усновление ребёнка, Тэд бросает работу и соглашается участвовать в торговле наркотиками, ... 10 10 4
Торрент: Зарегистрирован [2018-10-03 19:33] · скачан: 40 раз
Статус: T временная
Размер: 3.18 GB
Как cкачать? Как скачать Над землёй через торрент | qTorrent

% Раздел Тема Автор DL S | L
T Фильмы (мультфильмы) cо спонсором показа (Новинки AVI/MKV) [ 1.37 GB ] Над землёй / Above Ground [2017 WEB-DLRip] MVO ["Синема УС"] bober100 Скачать
1 | 0

28-11-2019 20:33  

Отключить всю рекламу на сайте

    Дорогой пользователь! Огромная просьба, поблагодарите релизера, оцените раздачу и оставьте свои комментарий, если Вы скачали Над землёй через торрент бесплатно! Внесите свою лепту в развитие PiratBit!
    Комментировать посты могут только пользователи прошедшие не сложную регистрацию
    Показать сообщения:    

    Над землёй через торрент
    Скачать бесплатно Над землёй
    Над землёй скачать торрент
    Над землёй смотреть онлайн
    Cкачать фильм Над землёй бесплатно
    Над землёй скачать торрент в хорошем качестве
    Над землёй смотреть онлайн бесплатно в хорошем качестве


    Вы не можете начинать темы
    Вы не можете отвечать на сообщения
    Вы не можете редактировать свои сообщения
    Вы не можете удалять свои сообщения
    Вы не можете голосовать в опросах
    Вы не можете прикреплять файлы к сообщениям
    Вы можете скачивать файлы