Ссылка на приватное зеркало нашего сайта всего за 1$. Внимание количество ограничено!!!

2 сезон

iTunes

1 сезон

1

2 сезон

2 сезон

iTunes

1 сезон

RePack

30

Ultimate

ВАЖНО

ИГРА 18+

pack

RePack

MK11
pack

Забери бонус

RePack

jed

!!Акция!!

Alien_Rage

RePack

fifa19

RePack

Assassins Creed: Odyssey

RePack

NEED FOR SPEED™ PAYBACK

4 сезон

9 сезон

Бесстыжие 9 сезон

Все сериалы

все сериалы на PB.wtf

RePack

FAR CRY 5
  

Кондор / Condor / Сезон: 1 / Серии: 1-10 из 10 (Эндрю МакКарти, Лоуренс Триллинг) [2018, Триллер, WEBRip] [MVO] [Jaskier] pb.wtf

Кондор через торрент pb.wtf

Размер: 7.1 GB | Добавлен: 2 года 1 мес. назад | Торрент скачан:25 раз
Скачать  

03-10-2018 19:51 Кондор Скачать торрент  

Кондор / Condor Страна: США
Жанр: триллер
Год выпуска: 2018
Продолжительность: ~ 00:50:00
Перевод: Профессиональный (многоголосый закадровый) | Jaskier
Субтитры: нет

Режиссер: Эндрю МакКарти, Лоуренс Триллинг
В ролях: Макс Айронс, Лим Лубани, Кэтерин Каннингэм, Кристина Моусес, Мона Траоре, Стив Белфорд, Кейт Вернон, Далмар Абузейд, Кэлвин Десотелс и др.
Описание: Молодой работник ЦРУ обнаруживает, что все сотрудники его отдела убиты. Расследование преступления раскрывает шокирующие тайны и крупный заговор.
скриншот  

Качество видео: WEBRip
Формат видео: AVI
Видео: 704x352 (2.00:1), 23.976 fps, XviD build 50 ~1593 kbps avg, 0.27 bit/pixel
Аудио #1: 48 kHz, MPEG Layer 3, 2 ch, ~192.00 kbps avg (Rus)
Аудио #2: 48 kHz, MPEG Layer 3, 2 ch, ~192.00 kbps avg (Eng)
Сэмпл
Общее
Полное имя : D:\Видео\Сериалы\Condor\Condor.S01E01.avi
Формат : AVI
Формат/Информация : Audio Video Interleave
Размер файла : 763 Мбайт
Продолжительность : 53 м. 33 с.
Общий поток : 1992 Кбит/сек
Программа кодирования : VirtualDubMod 1.5.10.2 (build 2540/release)
Библиотека кодирования : VirtualDubMod build 2540/release

Видео
Идентификатор : 0
Формат : MPEG-4 Visual
Профиль формата : Advanced Simple@L5
Настройки формата : BVOP1
Параметр BVOP формата : 1
Параметр QPel формата : Нет
Параметр GMC формата : Без точки перехода
Параметр матрицы формата : Default (H.263)
Идентификатор кодека : XVID
Идентификатор кодека/Подсказка : XviD
Продолжительность : 53 м. 33 с.
Битрейт : 1594 Кбит/сек
Ширина : 704 пикселя
Высота : 352 пикселя
Соотношение сторон : 2,000
Частота кадров : 23,976 (24000/1001) кадра/сек
Цветовое пространство : YUV
Субдискретизация насыщенности : 4:2:0
Битовая глубина : 8 бит
Тип развёртки : Прогрессивная
Метод сжатия : С потерями
Бит/(Пиксели*Кадры) : 0.268
Размер потока : 611 Мбайт (80%)
Библиотека кодирования : XviD 1.2.1 (UTC 2008-12-04)

Аудио #1
Идентификатор : 1
Формат : MPEG Audio
Версия формата : Version 1
Профиль формата : Layer 3
Настройки формата : Joint stereo / MS Stereo
Идентификатор кодека : 55
Идентификатор кодека/Подсказка : MP3
Продолжительность : 53 м. 33 с.
Вид битрейта : Постоянный
Битрейт : 192 Кбит/сек
Каналы : 2 канала
Частота : 48,0 КГц
Метод сжатия : С потерями
Размер потока : 73,6 Мбайт (10%)
Выравнивание : Соединение по промежуткам
Продолжительность промежутка : 42 мс. (1,00 видеокадр)
Время предзагрузки промежутка : 504 мс.

Аудио #2
Идентификатор : 2
Формат : MPEG Audio
Версия формата : Version 1
Профиль формата : Layer 3
Настройки формата : Joint stereo
Идентификатор кодека : 55
Идентификатор кодека/Подсказка : MP3
Продолжительность : 53 м. 33 с.
Вид битрейта : Постоянный
Битрейт : 192 Кбит/сек
Каналы : 2 канала
Частота : 48,0 КГц
Частота кадров : 41,667 кадра/сек (1152 SPF)
Метод сжатия : С потерями
Размер потока : 73,6 Мбайт (10%)
Выравнивание : Соединение по промежуткам
Продолжительность промежутка : 42 мс. (1,00 видеокадр)
Время предзагрузки промежутка : 504 мс.
скриншот  скриншот  скриншот  
pb.wtf



Скачать Кондор через торрент http://i105.fastpic.ru/big/2018/0717/d6/b6b414c483ab0e4f325c4340420aaed6.jpg Скачать фильм Кондор через торрент бесплантно в хорошем качестве Описание: Молодой работник ЦРУ обнаруживает, что все сотрудники его отдела убиты. Расследование преступления раскрывает шокирующие тайны и ... 5 10 1
Торрент: Зарегистрирован [2018-10-03 19:51] · скачан: 25 раз
Статус: √ проверено
Размер: 7.1 GB
Как cкачать? Как скачать Кондор через торрент | qTorrent

% Раздел Тема Автор DL S | L
Зарубежные сериалы [ 22.75 GB ] Кондор / Condor / Сезон: 1 / Серии: 1-10 из 10 [2018 WEB-DL 1080p] MVO [LostFilm] bober100 Скачать
2 | 0
Зарубежные сериалы [ 5.64 GB ] Кондор / Condor / Сезон: 1 / Серии: 1-10 из 10 [2018 WEB-DLRip] MVO [LostFilm] bober100 Скачать
1 | 0
Зарубежные сериалы [ 17.16 GB ] Кондор / Condor / Сезон: 1 / Серии: 1-10 из 10 [2018 WEB-DL 720p] [DVO] + [Original] killermax2013 Скачать
1 | 0
Зарубежные сериалы [ 16.92 GB ] Кондор / Condor / Сезон: 1 / Серии: 1-10 из 10 [2018 WEBRip 720p] MVO [Jaskier] bober100 Скачать
1 | 0

28-11-2019 20:33  

Отключить всю рекламу на сайте

03-10-2018 19:52 Кондор Скачать торрент  

Цитата:

Сериал официально продлен на второй сезон.

pb.wtf



    Дорогой пользователь! Огромная просьба, поблагодарите релизера, оцените раздачу и оставьте свои комментарий, если Вы скачали Кондор через торрент бесплатно! Внесите свою лепту в развитие PiratBit!
    Комментировать посты могут только пользователи прошедшие не сложную регистрацию
    Показать сообщения:    

    Кондор через торрент
    Скачать бесплатно Кондор
    Кондор скачать торрент
    Кондор смотреть онлайн
    Cкачать фильм Кондор бесплатно
    Кондор скачать торрент в хорошем качестве
    Кондор смотреть онлайн бесплатно в хорошем качестве


    Вы не можете начинать темы
    Вы не можете отвечать на сообщения
    Вы не можете редактировать свои сообщения
    Вы не можете удалять свои сообщения
    Вы не можете голосовать в опросах
    Вы не можете прикреплять файлы к сообщениям
    Вы можете скачивать файлы