1 сезон

1 сезон

iTunes

1

КиноПоиск HD

Кинопоиск HD

iTunes

13

1 сезон

RePack

30

Новинка

ВАЖНО

ИГРА 18+

pack

RePack

MK11
pack

Легкие деньги

RePack

jed

RePack

fifa19

RePack

RDR2

RePack

NEED FOR SPEED™ PAYBACK

4 сезон

9 сезон

Бесстыжие 9 сезон

Все сериалы

все сериалы на PB.wtf

RePack

FAR CRY 5
  
Magnet ссылка

Слепой горизонт / Blind Horizon (Майкл Хауссман) [2003 г., триллер, драма, BDRip] DVO [Лицензия R5] pb.wtf

Слепой горизонт через торрент pb.wtf

Размер: 2.18 GB | Добавлен: 2 года 6 мес. назад | Торрент скачан:10 раз
Скачать  

03-10-2018 20:18 Слепой горизонт Скачать торрент  

Слепой горизонт / Blind Horizon
Год выпуска: 2003
Страна: США
Жанр: Триллер, драма
Продолжительность: 01:39:24
Перевод: Профессиональный (двухголосый) лицензия R5
Субтитры: Русские (отдельным файлом)

Режиссер: Майкл Хауссман

rating

В ролях: Вэл Килмер, Нив Кэмпбелл, Сэм Шепард, Ноубл Уиллингэм, Эми Смарт, Джил Беллоуз, Джанкарло Эспозито, Чарльз Ортиз, Лео Фицпатрик, Трайан Куэвас, Хесус Майорга, Коул С. МакКэй, Гуадалупе А. Гарсиа, Фэй Данауэй, Эллен Блейк, Джон Б. Тэйер, Бутс Сауферлэнд, Ширли Бренер, Тим Кэрролл, Джон Хардман

Описание: В больнице маленького техасского городка приходит в сознание мужчина с огнестрельным ранением в голову. Незнакомец не знает, как его зовут и что он делает в этой глуши, но он уверен в одном: скоро в городе произойдёт покушение на президента США. И хотя очаровательная девушка Хлои называет его Фрэнком Кавано, своим женихом, и хочется верить, что всё забудется, как страшный сон, Фрэнк решает докопаться до истины. В его распоряжении лишь собственная искалеченная память и загадочная карточка с кодовым словом «ромбус». Этих крупиц хватит, чтобы распутать длинную нить коварного заговора, но готов ли Фрэнк к страшному открытию, которое ждёт его впереди?
Качество: BDRip
Формат: AVI
Видео кодек: XviD
Аудио кодек: AC3
Видео: XviD, 2231 Кбит/с, 704x384, 23.976 кадр/с
Аудио#1: Русский, AC3, 6 ch, 448 Кбит/с
Аудио#2: Английский, AC3, 6 ch, 448 Кбит/с
Видео
Идентификатор : 0
Формат : MPEG-4 Visual
Профиль формата : Advanced Simple@L5
Настройки формата : BVOP1 / Custom Matrix
Параметр BVOP формата : 1
Параметр QPel формата : Нет
Параметр GMC формата : Без точки перехода
Параметр матрицы формата : Выборочная
Идентификатор кодека : XVID
Идентификатор кодека/Подсказка : XviD
Продолжительность : 1 ч. 39 м.
Битрейт : 2231 Кбит/сек
Ширина : 704 пикселя
Высота : 384 пикселя
Соотношение сторон : 1,85:1
Частота кадров : 24,000 кадра/сек
Цветовое пространство : YUV
Субдискретизация насыщенности : 4:2:0
Битовая глубина : 8 бит
Тип развёртки : Прогрессивная
Метод сжатия : С потерями
Бит/(Пиксели*Кадры) : 0.344
Размер потока : 1,55 Гбайт (71%)
Библиотека кодирования : XviD 65

Аудио #1
Идентификатор : 1
Формат : AC-3
Формат/Информация : Audio Coding 3
Идентификатор кодека : 2000
Продолжительность : 1 ч. 39 м.
Вид битрейта : Постоянный
Битрейт : 448 Кбит/сек
Каналы : 6 каналов
Расположение каналов : Front: L C R, Side: L R, LFE
Частота : 48,0 КГц
Частота кадров : 31,250 кадров/сек (1536 SPF)
Битовая глубина : 16 бит
Метод сжатия : С потерями
Размер потока : 318 Мбайт (14%)
Выравнивание : Разделение по промежуткам
Продолжительность промежутка : 42 мс. (1,00 видеокадр)
Время предзагрузки промежутка : 500 мс.
ServiceKind/String : Complete Main

Аудио #2
Идентификатор : 2
Формат : AC-3
Формат/Информация : Audio Coding 3
Идентификатор кодека : 2000
Продолжительность : 1 ч. 39 м.
Вид битрейта : Постоянный
Битрейт : 448 Кбит/сек
Каналы : 6 каналов
Расположение каналов : Front: L C R, Side: L R, LFE
Частота : 48,0 КГц
Частота кадров : 31,250 кадров/сек (1536 SPF)
Битовая глубина : 16 бит
Метод сжатия : С потерями
Размер потока : 318 Мбайт (14%)
Выравнивание : Разделение по промежуткам
Продолжительность промежутка : 42 мс. (1,00 видеокадр)
Время предзагрузки промежутка : 500 мс.
ServiceKind/String : Complete Main

скриншот   скриншот   скриншот   скриншот   скриншот  

pb.wtf



Скачать Слепой горизонт через торрент https://pic1.kartinco.top/images/11/zfphb.jpg Скачать фильм Слепой горизонт через торрент бесплантно в хорошем качестве Описание: В больнице маленького техасского городка приходит в сознание мужчина с огнестрельным ранением в голову. Незнакомец не знает, как ... 5 10 1
Торрент: Зарегистрирован [2018-10-03 20:18] · скачан: 10 раз
Статус: √ проверено
Размер: 2.18 GB
Как cкачать? Как скачать Слепой горизонт через торрент | UTorrent

28-11-2019 20:33  

Отключить всю рекламу на сайте

03-10-2018 20:54 Слепой горизонт Скачать торрент  

Топик был перенесен из форума Оформление раздач (Кино, Видео и ТВ) в форум Фильмы 2001-2005


bober100pb.wtf



    Дорогой пользователь! Огромная просьба, поблагодарите релизера, оцените раздачу и оставьте свои комментарий, если Вы скачали Слепой горизонт через торрент бесплатно! Внесите свою лепту в развитие PiratBit!
    Комментировать посты могут только пользователи прошедшие не сложную регистрацию
    Показать сообщения:    

    Слепой горизонт через торрент
    Скачать бесплатно Слепой горизонт
    Слепой горизонт скачать торрент
    Слепой горизонт смотреть онлайн
    Cкачать фильм Слепой горизонт бесплатно
    Слепой горизонт скачать торрент в хорошем качестве
    Слепой горизонт смотреть онлайн бесплатно в хорошем качестве


    Вы не можете начинать темы
    Вы не можете отвечать на сообщения
    Вы не можете редактировать свои сообщения
    Вы не можете удалять свои сообщения
    Вы не можете голосовать в опросах
    Вы не можете прикреплять файлы к сообщениям
    Вы можете скачивать файлы