новый адрес
Ссылка на приватное зеркало всего за 1$. Внимание количество ограничено!!!

iTunes

1+1

iTunes

мы

WEB-DL

1

iTunes

Чернобыль

iTunes

Ральф против интернета

Лицензия

ПШазам

Лицензия

Оно 2

Лицензия

30
pack

Вам бонус

ВАЖНО

!!Акция!!

Alien_RageХит недели

RePack

Resident Evil 21

ИГРА 18+

pack

RePack

jed

!!Акция!!

Alien_Rage

RePack

fifa19

RePack

Assassins Creed: Odyssey

RePack

NEED FOR SPEED™ PAYBACK

3 сезон

9 сезон

Бесстыжие 9 сезон

Все сериалы

все сериалы на PB.wtf

RePack

FAR CRY 5
Ребята, катастрофически не хватает 1900р. для оплаты серверов за Октябрь (всвязи с блокировками трафик упал в 3 раза), 1-2р., выручайте.
  

ХОТ-ДОГ / Hot Dog (Торстен Кюнстлер) [2018 г., боевик, комедия, BDRip] DUB [iTunes] pb.wtf

ХОТ-ДОГ через торрент pb.wtf

Размер: 1.46 GB | Добавлен: 1 год 2 мес. назад | Торрент скачан:384 раза
Скачать  

04-10-2018 13:34 ХОТ-ДОГ Скачать торрент  

ХОТ-ДОГ / Hot Dog
Год выпуска: 2018
Страна: Германия
Жанр: Боевик, комедия
Продолжительность: 01:45:31
Перевод: Дубляж iTunes
Субтитры: Немецкие (вшитые) на 3 фразы и на названия локаций, учреждений

Режиссер: Торстен Кюнстлер

rating

В ролях: Тиль Швайгер, Маттиас Швайгхефер, Энн Шефер, Лиза Томашевски, Йоахим Пауль Ассбёк, Давид Брюкнер, Симсон Баббл, Томас Фелен, Хайно Ферх, Самуэль Финци

Описание: Могут ли сработаться оперативник-бунтарь, презирающий глупые приказы начальства и молодой полицейский-формалист, у которого на каждый шаг в голове есть инструкция? На глазах у этой парочки похищают дочь президента одной из восточно-европейских стран, и теперь, чтобы отстоять свою честь, они должны вернуть похищенную. Вот только разница в их подходах к работе грозит перевернуть с ног наголову любое дело, за которое они берутся.
Качество: BDRip
Формат: AVI
Видео кодек: XviD
Аудио кодек: AC3
Видео: XviD, 1585 Кбит/с, 704x288
Аудио: Русский, AC3, 5.1 ch, 48 kHz, 384 kbps | iTunes
Видео
Идентификатор : 0
Формат : MPEG-4 Visual
Профиль формата : Advanced Simple@L5
Настройки формата : BVOP2 / Custom Matrix
Параметр BVOP формата : 2
Параметр QPel формата : Нет
Параметр GMC формата : Без точки перехода
Параметр матрицы формата : Выборочная
Идентификатор кодека : XVID
Идентификатор кодека/Подсказка : XviD
Продолжительность : 1 ч. 45 м.
Битрейт : 1585 Кбит/сек
Ширина : 704 пикселя
Высота : 288 пикселей
Соотношение сторон : 2,40:1
Частота кадров : 23,976 (23976/1000) кадра/сек
Цветовое пространство : YUV
Субдискретизация насыщенности : 4:2:0
Битовая глубина : 8 бит
Тип развёртки : Прогрессивная
Метод сжатия : С потерями
Бит/(Пиксели*Кадры) : 0.326
Размер потока : 1,17 Гбайт (80%)
Библиотека кодирования : XviD 73

Аудио
Идентификатор : 1
Формат : AC-3
Формат/Информация : Audio Coding 3
Идентификатор кодека : 2000
Продолжительность : 1 ч. 45 м.
Вид битрейта : Постоянный
Битрейт : 384 Кбит/сек
Каналы : 6 каналов
Расположение каналов : Front: L C R, Side: L R, LFE
Частота : 48,0 КГц
Частота кадров : 31,250 кадров/сек (1536 SPF)
Битовая глубина : 16 бит
Метод сжатия : С потерями
Размер потока : 290 Мбайт (19%)
Выравнивание : Соединение по промежуткам
Продолжительность промежутка : 32 мс. (0,77 видеокадр)
ServiceKind/String : Complete Main

скриншот   скриншот   скриншот   скриншот   скриншот  

pb.wtf



Скачать ХОТ-ДОГ через торрент http://pic1.kartinco.top/images/11/yuxri.jpg Скачать фильм ХОТ-ДОГ через торрент бесплантно в хорошем качестве Описание: Могут ли сработаться оперативник-бунтарь, презирающий глупые приказы начальства и молодой полицейский-формалист, у которого на ... 9.8 10 12
Info! Золотая раздача, скачанное не засчитывается.
Торрент: Зарегистрирован [2018-10-04 13:34] · скачан: 384 раз
Статус: √ проверено
Размер: 1.46 GB
Как cкачать? Как скачать ХОТ-ДОГ через торрент | qTorrent

% Раздел Тема Автор DL S | L
Фильмы 2018 [DVDrip, WEB-DLRip, HDrip] (DUB, MVO) [ 1.41 GB ] ХОТ-ДОГ / Hot Dog [2018 BDRip] - Twi7ter Скачать
4 | 0
Фильмы 2018 [DVDrip, WEB-DLRip, HDrip] (DUB, MVO) [ 2.17 GB ] ХОТ-ДОГ / Hot Dog [2018 BDRip-AVC] bober100 Скачать
2 | 0
Фильмы (Blu-ray, BD-Remux, HDDVD) [ 30.37 GB ] ХОТ-ДОГ / Hot Dog [2018 BD Remux 1080p] bober100 Скачать
1 | 0
Фильмы [HD 720p, 1080p] (Хороший звук DUB, MVO) [ 4.35 GB ] ХОТ-ДОГ / Hot Dog [2018 BDRip 720p] bober100 Скачать
1 | 0
Фильмы [HD 720p, 1080p] (Хороший звук DUB, MVO) [ 8.12 GB ] ХОТ-ДОГ / Hot Dog [2018 BDRip 1080p] bober100 Скачать
1 | 0
Классические порно фильмы [ 708 MB ] Хот Диггити Дог / Hot Diggity Dog [1990 Classic All Sex VHSRip лицензия] Shaidi Скачать
1 | 0

28-11-2019 20:33  

Отключить всю рекламу на сайте

04-10-2018 13:58 ХОТ-ДОГ Скачать торрент  

вот за это Спасибо pb.wtf



04-10-2018 17:41 ХОТ-ДОГ Скачать торрент  

тиль молоток!!!!!!!!!!pb.wtf



05-10-2018 07:42 ХОТ-ДОГ Скачать торрент  

Топик был перенесен из форума Оформление раздач (Кино, Видео и ТВ) в форум Фильмы 2018 [DVDrip, WEB-DLRip, HDrip] (DUB, MVO)


schultzpb.wtf



    Дорогой пользователь! Огромная просьба, поблагодарите релизера, оцените раздачу и оставьте свои комментарий, если Вы скачали ХОТ-ДОГ через торрент бесплатно! Внесите свою лепту в развитие PiratBit!
    Комментировать посты могут только пользователи прошедшие не сложную регистрацию
    Показать сообщения:    

    ХОТ-ДОГ через торрент
    Скачать бесплатно ХОТ-ДОГ
    ХОТ-ДОГ скачать торрент
    ХОТ-ДОГ смотреть онлайн
    Cкачать фильм ХОТ-ДОГ бесплатно
    ХОТ-ДОГ скачать торрент в хорошем качестве
    ХОТ-ДОГ смотреть онлайн бесплатно в хорошем качестве


    Вы не можете начинать темы
    Вы не можете отвечать на сообщения
    Вы не можете редактировать свои сообщения
    Вы не можете удалять свои сообщения
    Вы не можете голосовать в опросах
    Вы не можете прикреплять файлы к сообщениям
    Вы можете скачивать файлы