Ссылка на приватное зеркало всего за 1$. Внимание количество ограничено!!!

OK

1+1

iTunes

мы

OK

1

WEB-DLRip

Джокер

Пифагор

Ведьмак / The Witcher сериал

iTunes

ПШазам

ОК

Оно 2

iTunes

30
pack

Вам бонус

ВАЖНО

!!Акция!!

Alien_RageХит недели

RePack

Resident Evil 21

ИГРА 18+

pack

RePack

jed

RePack

fifa19

RePack

Assassins Creed: Odyssey

RePack

NEED FOR SPEED™ PAYBACK

4 сезон

9 сезон

Бесстыжие 9 сезон

Все сериалы

все сериалы на PB.wtf

RePack

FAR CRY 5
  

Придержи тьму / Hold the Dark (Джереми Солнье) [2018, триллер, драма, детектив, приключения, WEB-DL 720p] MVO [Jaskier] pb.wtf

Придержи тьму через торрент pb.wtf

Размер: 2.46 GB | Добавлен: 1 год 3 мес. назад | Торрент скачан:489 раз
Скачать  

05-10-2018 12:05 Придержи тьму Скачать торрент  

Придержи тьму / Hold the DarkГод выпуска: 2018
Страна: США
Жанр: триллер, драма, детектив, приключения
Продолжительность: 02:05:50
Перевод: Профессиональный (многоголосый) | Jaskier
Субтитры: отсутствуют

Режиссер: Джереми Солнье

rating

В ролях:

Джеффри Райт, Беккам Кроуфорд, Райли Кио, Майкл Тэйлс, Исаак Берд, Джозеф Уайтберд, Зандус Сноу, Джулиан Шэмп, Александр Скарсгард, Конор Бору

Описание:

В снегах Аляски произошла трагедия. Найдены тела трёх детей, предположительно растерзанных волками, и пропал шестилетний мальчик. Родители исчезнувшего нанимают исследователя и специалиста по волкам Расселла Кора, чтобы тот нашёл их сына.

Качество: WEB-DL 720p
Формат: MKV

Видео: MPEG-4 AVC, 1740 Кбит/с, 1280x720
Аудио#1: Русский (AC3, 6 ch, 640 Кбит/с)
Аудио#2: английский (AC3, 6 ch, 640 Кбит/с)
скриншот  скриншот  скриншот  

Общее
Уникальный идентификатор : 249993259317017597323712381000443682318 (0xBC12F34D80EA82548C829966F37ADE0E)
Полное имя : D:\Hold.the.Dark.2018.720p.NF.WEB-DL.DD5.1.x264-Jaskier.mkv
Формат : Matroska
Версия формата : Version 2
Размер файла : 2,46 Гбайт
Продолжительность : 2 ч. 5 м.
Режим общего битрейта : Переменный
Общий поток : 2803 Кбит/сек
Дата кодирования : UTC 2018-10-04 20:13:43
Программа кодирования : mkvmerge v7.8.0 ('River Man') 32bit built on Apr 3 2015 12:11:22
Библиотека кодирования : libebml v1.3.1 + libmatroska v1.4.2

Видео
Идентификатор : 1
Формат : AVC
Формат/Информация : Advanced Video Codec
Профиль формата : Main@L3.1
Параметр CABAC формата : Да
Параметр RefFrames формата : 3 кадра
Идентификатор кодека : V_MPEG4/ISO/AVC
Продолжительность : 2 ч. 5 м.
Вид битрейта : Переменный
Битрейт : 1740 Кбит/сек
Максимальный битрейт : 2310 Кбит/сек
Ширина : 1280 пикселей
Высота : 720 пикселей
Соотношение сторон : 16:9
Режим частоты кадров : Постоянный
Частота кадров : 23,976 (24000/1001) кадра/сек
Цветовое пространство : YUV
Субдискретизация насыщенности : 4:2:0
Битовая глубина : 8 бит
Тип развёртки : Прогрессивная
Бит/(Пиксели*Кадры) : 0.070
Размер потока : 1,29 Гбайт (52%)
Библиотека кодирования : x264 core 148 r2715 7e75228
Настройки программы : cabac=1 / ref=3 / deblock=1:0:0 / analyse=0x1:0x111 / me=umh / subme=10 / psy=1 / psy_rd=1.00:0.00 / mixed_ref=1 / me_range=24 / chroma_me=1 / trellis=2 / 8x8dct=0 / cqm=0 / deadzone=21,11 / fast_pskip=1 / chroma_qp_offset=-2 / threads=8 / lookahead_threads=1 / sliced_threads=0 / nr=0 / decimate=1 / interlaced=0 / bluray_compat=0 / stitchable=1 / constrained_intra=0 / bframes=2 / b_pyramid=0 / b_adapt=2 / b_bias=0 / direct=3 / weightb=1 / open_gop=0 / weightp=2 / keyint=48 / keyint_min=25 / scenecut=0 / intra_refresh=0 / rc_lookahead=48 / rc=2pass / mbtree=1 / bitrate=1540 / ratetol=1.0 / qcomp=0.50 / qpmin=6 / qpmax=51 / qpstep=4 / cplxblur=20.0 / qblur=0.5 / vbv_maxrate=2310 / vbv_bufsize=3080 / nal_hrd=vbr / filler=0 / ip_ratio=1.40 / aq=1:1.00
Default : Да
Forced : Нет

Аудио #1
Идентификатор : 2
Формат : AC-3
Формат/Информация : Audio Coding 3
Расширение режима : CM (complete main)
Параметр Endianness формата : Big
Идентификатор кодека : A_AC3
Продолжительность : 2 ч. 5 м.
Вид битрейта : Постоянный
Битрейт : 640 Кбит/сек
Каналы : 6 каналов
Расположение каналов : Front: L C R, Side: L R, LFE
Частота : 48,0 КГц
Частота кадров : 31,250 кадров/сек (1536 spf)
Метод сжатия : С потерями
Размер потока : 576 Мбайт (23%)
Заголовок : Jaskier
Язык : Russian
Default : Да
Forced : Нет

Аудио #2
Идентификатор : 3
Формат : E-AC-3
Формат/Информация : Audio Coding 3
Параметр Endianness формата : Big
Идентификатор кодека : A_EAC3
Продолжительность : 2 ч. 5 м.
Вид битрейта : Постоянный
Битрейт : 640 Кбит/сек
Каналы : 6 каналов
Расположение каналов : Front: L C R, Side: L R, LFE
Частота : 48,0 КГц
Частота кадров : 187,500 кадров/сек (256 spf)
Метод сжатия : С потерями
Размер потока : 576 Мбайт (23%)
Заголовок : English
Язык : English
Default : Нет
Forced : Нет

pb.wtf
!bober100 писал(а):

Реклама: Присутствует звуковая (два раза в начале и конце по 12 сек.)



Скачать Придержи тьму через торрент http://img11.lostpic.net/2018/10/05/d124b687eafe107243dd25db9985a3ae.jpg Скачать фильм Придержи тьму через торрент бесплантно в хорошем качестве Описание: В снегах Аляски произошла трагедия. Найдены тела трёх детей, предположительно растерзанных волками, и пропал шестилетний мальчик. ... 8.5 10 6
Торрент: Зарегистрирован [2018-10-05 12:05] · скачан: 489 раз
Статус: T временная
Размер: 2.46 GB
Как cкачать? Как скачать Придержи тьму через торрент | qTorrent

% Раздел Тема Автор DL S | L
Фильмы 2018 [DVDrip, WEB-DLRip, HDrip] (DUB, MVO) [ 1.45 GB ] Придержи тьму / Hold the Dark [2018 WEBRip] MVO [NewStudio] bober100 Скачать
2 | 0
Ultra HD (UHD: 2K, 4K, 8K) — видео сверхвысокой чёткости [ 17.18 GB ] Придержи тьму / Hold the Dark [2018 UHD WEBRip 2160p] MVO [NewStudio] bober100 Скачать
1 | 0
Фильмы (WEB-DL 720p, 1080p) [ 6.77 GB ] Придержи тьму / Hold the Dark [2018 WEBRip 1080p] MVO [NewStudio] bober100 Скачать
2 | 0
T Фильмы (мультфильмы) cо спонсором показа (Новинки AVI/MKV) [ 1.46 GB ] Придержи тьму / Hold the Dark [2018 WEB-DLRip] MVO [Jaskier] bober100 Скачать
1 | 0

28-11-2019 20:33  

Отключить всю рекламу на сайте

05-10-2018 14:08 Придержи тьму Скачать торрент  

очень интересный фильм.всем к просмотру.pb.wtf



06-10-2018 20:42 Придержи тьму Скачать торрент  

Это какая то мрачная жесть...pb.wtf



08-10-2018 05:11 Придержи тьму Скачать торрент  

Я редко оставляю отзывы. Но, просто не смог сдержаться.
Релизеру, как всегда, огромное спасибо.
Досмотрел сей "шедевр" до половины, и уселся в компьютер поиграть.
Далее со слов жены. Ты мне что поставил? Нет я люблю триллеры, но такой безнадежный бред без смысла, я еще никогда не смотрела. Короче, спасибо за испорченный вечер.
Но, колхоз, дело добровольное. Так что, скачивайте смотрите, или не смотрите. Я к тому, что фильм идет 2 часа, что меня и подкупило...pb.wtf





Последний раз редактировалось: ayax37 (2018-10-08 05:13), всего редактировалось 2 раз(а)
    Дорогой пользователь! Огромная просьба, поблагодарите релизера, оцените раздачу и оставьте свои комментарий, если Вы скачали Придержи тьму через торрент бесплатно! Внесите свою лепту в развитие PiratBit!
    Комментировать посты могут только пользователи прошедшие не сложную регистрацию
    Показать сообщения:    

    Придержи тьму через торрент
    Скачать бесплатно Придержи тьму
    Придержи тьму скачать торрент
    Придержи тьму смотреть онлайн
    Cкачать фильм Придержи тьму бесплатно
    Придержи тьму скачать торрент в хорошем качестве
    Придержи тьму смотреть онлайн бесплатно в хорошем качестве


    Вы не можете начинать темы
    Вы не можете отвечать на сообщения
    Вы не можете редактировать свои сообщения
    Вы не можете удалять свои сообщения
    Вы не можете голосовать в опросах
    Вы не можете прикреплять файлы к сообщениям
    Вы можете скачивать файлы