Ссылка на приватное зеркало всего за 1$. Внимание количество ограничено!!!

OK

1+1

iTunes

мы

OK

1

WEB-DLRip

Джокер

Пифагор

Ведьмак / The Witcher сериал

iTunes

ПШазам

ОК

Оно 2

iTunes

30
pack

Вам бонус

ВАЖНО

!!Акция!!

Alien_RageХит недели

RePack

Resident Evil 21

ИГРА 18+

pack

RePack

jed

RePack

fifa19

RePack

Assassins Creed: Odyssey

RePack

NEED FOR SPEED™ PAYBACK

4 сезон

9 сезон

Бесстыжие 9 сезон

Все сериалы

все сериалы на PB.wtf

RePack

FAR CRY 5
  

Королева Ниендорфа / Königin von Niendorf (Джоя Том) [2017, драма, WEB-DL 720p] MVO ["Синема УС"] pb.wtf

Королева Ниендорфа через торрент pb.wtf

Размер: 2.55 GB | Добавлен: 1 год 3 мес. назад | Торрент скачан:24 раза
Скачать  

05-10-2018 15:17 Королева Ниендорфа Скачать торрент  

Королева Ниендорфа / Königin von NiendorfГод выпуска: 2017
Страна: Германия
Жанр: драма
Продолжительность: 01:10:21
Перевод: Любительский (многоголосый) | "Синема УС"
Субтитры: отсутствуют

Режиссер: Джоя Том

rating

В ролях:

Лиза Моэлл, Деннфи Сонненшайн, Салим Фазани, Иво Т. Михлигк, Мориц Риек, Элиас Себастин, Софи Клюге, Корнелиус Швальм, Тиль Шиндлер, Фредерик Шиндлер, Тино Мьюз, Джамила Сааб, Сеси Чух, aМарион Алессандра Беккер

Описание:

У Леи нет смысла посещать летний лагерь так как девушки с ее класса насмехаются над ней. Скорее, она хочет присоединиться к мальчикам из деревни, но Лии придется пройти много испытаний, и начало захватывающих событий и неожиданной дружбы.

Качество: WEB-DL 720p
Формат: MKV

Видео: h.264,4 810 kb/s, 960x720
Аудио#1: Русский, (AC3, 2 ch, 384 Кбит/с)
скриншот  скриншот  скриншот  

Общее
Уникальный идентификатор : 171777705867406969269016183881599039735 (0x813B2EC8C1F38351953B4E2D6F8038F7)
Полное имя : D:\Konigin.von.Niendorf.2O18.P.WEB-DL.72Op_KOSHARA.mkv
Формат : Matroska
Версия формата : Version 2
Размер файла : 2,55 Гбайт
Продолжительность : 1 ч. 10 м.
Режим общего битрейта : Переменный
Общий поток : 5196 Кбит/сек
Дата кодирования : UTC 2018-10-02 15:51:47
Программа кодирования : mkvmerge v8.3.0 ('Over the Horizon') 64bit
Библиотека кодирования : libebml v1.3.1 + libmatroska v1.4.2

Видео
Идентификатор : 1
Формат : AVC
Формат/Информация : Advanced Video Codec
Профиль формата : High@L4.1
Параметр CABAC формата : Да
Параметр RefFrames формата : 4 кадра
Идентификатор кодека : V_MPEG4/ISO/AVC
Продолжительность : 1 ч. 10 м.
Вид битрейта : Переменный
Битрейт : 4810 Кбит/сек
Максимальный битрейт : 5500 Кбит/сек
Ширина : 960 пикселей
Высота : 720 пикселей
Соотношение сторон : 4:3
Режим частоты кадров : Постоянный
Частота кадров : 23,976 (24000/1001) кадра/сек
Стандарт вещания : Component
Цветовое пространство : YUV
Субдискретизация насыщенности : 4:2:0
Битовая глубина : 8 бит
Тип развёртки : Прогрессивная
Бит/(Пиксели*Кадры) : 0.284
Размер потока : 2,31 Гбайт (91%)
Default : Да
Forced : Нет
Цветовой диапазон : Limited
Основные цвета : BT.709
Характеристики трансфера : BT.709
Коэффициенты матрицы : BT.709

Аудио
Идентификатор : 2
Формат : AC-3
Формат/Информация : Audio Coding 3
Расширение режима : CM (complete main)
Параметр Endianness формата : Big
Идентификатор кодека : A_AC3
Продолжительность : 1 ч. 10 м.
Вид битрейта : Постоянный
Битрейт : 384 Кбит/сек
Каналы : 2 канала
Расположение каналов : Front: L R
Частота : 48,0 КГц
Частота кадров : 31,250 кадров/сек (1536 spf)
Метод сжатия : С потерями
Размер потока : 193 Мбайт (7%)
Default : Да
Forced : Нет

pb.wtf



Скачать Королева Ниендорфа через торрент http://img11.lostpic.net/2018/10/05/0fc4b535795805e91a72b7766243f95e.jpg Скачать фильм Королева Ниендорфа через торрент бесплантно в хорошем качестве Описание: У Леи нет смысла посещать летний лагерь так как девушки с ее класса насмехаются над ней. Скорее, она хочет присоединиться к ... 10 10 3
Торрент: Зарегистрирован [2018-10-05 15:17] · скачан: 24 раз
Статус: T временная
Размер: 2.55 GB
Как cкачать? Как скачать Королева Ниендорфа через торрент | qTorrent

% Раздел Тема Автор DL S | L
T Фильмы (мультфильмы) cо спонсором показа (Новинки AVI/MKV) [ 1.37 GB ] Королева Ниендорфа / Königin von Niendorf [2017 WEB-DLRip] MVO ["Синема УС"] bober100 Скачать
1 | 0

28-11-2019 20:33  

Отключить всю рекламу на сайте

    Дорогой пользователь! Огромная просьба, поблагодарите релизера, оцените раздачу и оставьте свои комментарий, если Вы скачали Королева Ниендорфа через торрент бесплатно! Внесите свою лепту в развитие PiratBit!
    Комментировать посты могут только пользователи прошедшие не сложную регистрацию
    Показать сообщения:    

    Королева Ниендорфа через торрент
    Скачать бесплатно Королева Ниендорфа
    Королева Ниендорфа скачать торрент
    Королева Ниендорфа смотреть онлайн
    Cкачать фильм Королева Ниендорфа бесплатно
    Королева Ниендорфа скачать торрент в хорошем качестве
    Королева Ниендорфа смотреть онлайн бесплатно в хорошем качестве


    Вы не можете начинать темы
    Вы не можете отвечать на сообщения
    Вы не можете редактировать свои сообщения
    Вы не можете удалять свои сообщения
    Вы не можете голосовать в опросах
    Вы не можете прикреплять файлы к сообщениям
    Вы можете скачивать файлы