Доктор Стрэндж

Лицензия

Добыча

MVO

Дом дракона

1 сезон

Тор

Лицензия

Мэверик

Лицензия

Там, где раки поют

MVO

Властелин колец

1 сезон

Ultimate

pack

Рекомендуем

30

Repack

ВАЖНО

ВАЖНО

Ghostwire

RePack

jed

RePack

nioh2

RePack

RDR2

RePack

NEED FOR SPEED™ PAYBACK

RePack

скачать торрент

Кинопоиск HD

Острые козырьки 6 сезон

6 сезон

FAR CRY 6

RePack

скачать торрент

Лицензия

скачать торрент

MVO

1

1 сезон

скачать торрент

1 сезон

скачать торрент

Лицензия

  

Мелодия любви / Серии: 1-4 из 4 (Наталья Углицких) [2018, Мелодрама, WEB-DLRip]

Мелодия любви через торрент pb.wtf

Размер: 2.73 GB | Добавлен: 4 года назад | Торрент скачан:37 раз
Смотреть онлайн | Скачать   

05-10-2018 19:17 Мелодия любви Скачать торрент  

Мелодия любвиГод выпуска: 2018
Страна: Россия
Жанр: Мелодрама
Продолжительность: 00:46:52
Субтитры: отсутствуют

Режиссер: Наталья Углицких



В ролях:

Андрей Чадов, Ольга Филимонова, Роман Полянский, Евгения Ярушникова, Екатерина Мельник, Алина Алексеева, Варвара Назарова

Описание:

Дина работает в хорошей фирме помощником руководителя и получает столько, что ни одной секретарше в Москве и не снилось. Она умеет приспосабливаться и очаровывать мужчин – начальник от нее без ума, но у нее принцип: никаких интрижек с боссом! Каждую пятницу, прогуливаясь по бульвару, она видит уличных музыкантов, играющих рок-н-ролл. Дина всегда проходит мимо красивого солиста, одаривая его презрительным взглядом, потому как считает, что заниматься попрошайничеством – недостойное занятие для мужчины! Но жизнь внесла свои коррективы. В один миг она потеряла работу и в поисках новой обратилась в компанию, руководителем которой оказался Игорь Волин – солист той самой уличной музыкальной группы. Удивлению героини не было предела! Почему успешный бизнесмен играет на улице?

Качество: WEB-DLRip
Формат: AVI

Видео: XviD, ~ 1887 Кбит/с, 720x400
Аудио: AC3, 2 ch, 192 Кбит/с
скриншот  скриншот  скриншот  скриншот  скриншот  

General
Complete name : D:\Мелодия любви.2018.WEB-DLRip.by.Nicodem.Files-x\01.Мелодия любви.2018.WEB-DLRip.by.Nicodem.Files-x.avi
Format : AVI
Format/Info : Audio Video Interleave
File size : 700 MiB
Duration : 46 min 52 s
Overall bit rate : 2 089 kb/s
Writing application : VirtualDubMod 1.5.10.3 | www.virtualdub-fr.org || (build 2550/release)
Writing library : VirtualDubMod build 2550/release

Video
ID : 0
Format : MPEG-4 Visual
Format profile : Advanced [email protected]
Format settings : BVOP1 / Custom Matrix
Format settings, BVOP : 1
Format settings, QPel : No
Format settings, GMC : No warppoints
Format settings, Matrix : Custom
Codec ID : XVID
Codec ID/Hint : XviD
Duration : 46 min 52 s
Bit rate : 1 887 kb/s
Width : 720 pixels
Height : 400 pixels
Display aspect ratio : 16:9
Frame rate : 25.000 FPS
Color space : YUV
Chroma subsampling : 4:2:0
Bit depth : 8 bits
Scan type : Progressive
Compression mode : Lossy
Bits/(Pixel*Frame) : 0.262
Stream size : 633 MiB (90%)
Writing library : XviD 73

Audio
ID : 1
Format : AC-3
Format/Info : Audio Coding 3
Codec ID : 2000
Duration : 46 min 52 s
Bit rate mode : Constant
Bit rate : 192 kb/s
Channel(s) : 2 channels
Channel positions : Front: L R
Sampling rate : 48.0 kHz
Frame rate : 31.250 FPS (1536 SPF)
Bit depth : 16 bits
Compression mode : Lossy
Stream size : 64.4 MiB (9%)
Alignment : Split accross interleaves
Interleave, duration : 40 ms (1.00 video frame)
Interleave, preload duratio : 500 ms
Service kind : Complete Main




Скачать Мелодия любви через торрент http://i89.fastpic.ru/big/2018/1003/3d/8f638adddad29df57372a52272faee3d.jpg Скачать, смотреть онлайн Мелодия любви бесплантно в хорошем качестве Описание: Дина работает в хорошей фирме помощником руководителя и получает столько, что ни одной секретарше в Москве и не снилось. Она ... 10 10 2
Торрент: Зарегистрирован [2018-10-05 19:17] · скачан: 37 раз
Статус: √ проверено
Размер: 2.73 GB
Как cкачать? Как скачать Мелодия любви через торрент | UTorrent

% Раздел Тема Автор DL S | L
Наши сериалы [ 4.85 GB ] Мелодия любви /серии 1-4 из 4/ | | DLRip 720p oleg8 Скачать
1 | 0

28-11-2019 20:33  


Отключить вcю реклaмy на сайте, в т.ч. и в плеере онлайн просмотра!

    Дорогой пользователь! Огромная просьба, поблагодарите релизера, оцените раздачу и оставьте свои комментарий, если Вы скачали Мелодия любви через торрент бесплатно!!
    Комментировать посты могут только пользователи прошедшие не сложную регистрацию
    Показать сообщения:    


    Мелодия любви через торрент
    Скачать бесплатно Мелодия любви
    Мелодия любви скачать торрент
    Мелодия любви смотреть онлайн
    Cкачать фильм Мелодия любви бесплатно
    Мелодия любви скачать торрент в хорошем качестве
    Мелодия любви смотреть онлайн бесплатно в хорошем качестве
    Вы не можете начинать темы
    Вы не можете отвечать на сообщения
    Вы не можете редактировать свои сообщения
    Вы не можете удалять свои сообщения
    Вы не можете голосовать в опросах
    Вы не можете прикреплять файлы к сообщениям
    Вы можете скачивать файлы