2 сезон

iTunes

1 сезон

1

iTunes

iTunes

iTunes

1 сезон

RePack

30

ИГРА 18+

pack

ВАЖНО

!!Акция!!

Alien_RageХит недели

RePack

MK11
pack

Забери бонус

RePack

jed

!!Акция!!

Alien_Rage

RePack

fifa19

RePack

Assassins Creed: Odyssey

RePack

NEED FOR SPEED™ PAYBACK

4 сезон

9 сезон

Бесстыжие 9 сезон

Все сериалы

все сериалы на PB.wtf

RePack

FAR CRY 5
  

Чужая женщина / 1 - й сезон / 1 - 2 серия из 2 (Максим Демченко) [2013 г., мелодрама, WEB-DLRip] pb.wtf

Чужая женщина через торрент pb.wtf

Размер: 2.74 GB | Добавлен: 2 года назад | Торрент скачан:22 раза
Скачать  

05-10-2018 22:29 Чужая женщина Скачать торрент  

Чужая женщина
Год выпуска: 2013

Страна: Россия

Жанр: Мелодрама

Сезон: 1

Серия: 1-2 из 2

Продолжительность: ~ 01:30:38 серия

Режиссер: Максим Демченко



В ролях: Александра Самохина, Юлия Кудояр, Андрей Биланов, Руслан Чернецкий, Людмила Кучеренко, Борис Бедросов, Ольга Бурлакова, Анастасия Минаева, Анастасия Филиппова, Анжела Кораблёва, Андрей Кривецкий

Описание: Вера считает себя вполне счастливой женщиной, у которой есть любящий муж, хороший дом и достаток. Всё в её жизни мирно и гладко до тех пор, пока в дом не приходит беда. В аварии погибает супруг героини – успешный бизнесмен Дмитрий. Теперь Вера вдова. Ей предстоит самой справляться с трудностями, управлять бизнесом и поддерживать свекровь. Но беда не приходит одна – оказывается, у погибшего мужа была любовница Юля, и она беременна! Мало того, свекровь, к которой Вера относится как к матери, вдруг начинает опекать Юлю и, в конце концов, заявляет, что внука она не оставит – ведь он «единственная родная кровиночка в этом мире»... Странно, но именно в этих далеко не радужных обстоятельствах героиня начинает свой путь к настоящему женскому счастью.
Качество: WEB-DLRip
Формат: AVI
Видео кодек: XviD
Аудио кодек: AC3
Видео: XviD, ~ 1960 Кбит/с, 720х400
Аудио: Русский, AC3, 2 ch, 192 Кбит/с
Видео
Идентификатор : 0
Формат : MPEG-4 Visual
Профиль формата : Advanced Simple@L5
Настройки формата : BVOP1 / Custom Matrix
Параметр BVOP формата : 1
Параметр QPel формата : Нет
Параметр GMC формата : Без точки перехода
Параметр матрицы формата : Выборочная
Идентификатор кодека : XVID
Идентификатор кодека/Подсказка : XviD
Продолжительность : 1 ч. 30 м.
Битрейт : 1960 Кбит/сек
Ширина : 720 пикселей
Высота : 400 пикселей
Соотношение сторон : 16:9
Частота кадров : 25,000 кадров/сек
Цветовое пространство : YUV
Субдискретизация насыщенности : 4:2:0
Битовая глубина : 8 бит
Тип развёртки : Прогрессивная
Метод сжатия : С потерями
Бит/(Пиксели*Кадры) : 0.272
Размер потока : 1,24 Гбайт (91%)
Библиотека кодирования : XviD 73

Аудио
Идентификатор : 1
Формат : AC-3
Формат/Информация : Audio Coding 3
Идентификатор кодека : 2000
Продолжительность : 1 ч. 30 м.
Вид битрейта : Постоянный
Битрейт : 192 Кбит/сек
Каналы : 2 канала
Расположение каналов : Front: L R
Частота : 48,0 КГц
Частота кадров : 31,250 кадров/сек (1536 SPF)
Битовая глубина : 16 бит
Метод сжатия : С потерями
Размер потока : 124 Мбайт (9%)
Выравнивание : Разделение по промежуткам
Продолжительность промежутка : 40 мс. (1,00 видеокадр)
Время предзагрузки промежутка : 500 мс.
ServiceKind/String : Complete Main

скриншот   скриншот   скриншот   скриншот   скриншот   скриншот   скриншот  

pb.wtf



Скачать Чужая женщина через торрент http://pic1.kartinco.top/images/11/cbjtb.jpg Скачать фильм Чужая женщина через торрент бесплантно в хорошем качестве Описание: Вера считает себя вполне счастливой женщиной, у которой есть любящий муж, хороший дом и достаток. Всё в её жизни мирно и гладко ... 10 10 2
Торрент: Зарегистрирован [2018-10-05 22:29] · скачан: 22 раз
Статус: √ проверено
Размер: 2.74 GB
Как cкачать? Как скачать Чужая женщина через торрент | qTorrent

28-11-2019 20:33  

Отключить всю рекламу на сайте

    Дорогой пользователь! Огромная просьба, поблагодарите релизера, оцените раздачу и оставьте свои комментарий, если Вы скачали Чужая женщина через торрент бесплатно! Внесите свою лепту в развитие PiratBit!
    Комментировать посты могут только пользователи прошедшие не сложную регистрацию
    Показать сообщения:    

    Чужая женщина через торрент
    Скачать бесплатно Чужая женщина
    Чужая женщина скачать торрент
    Чужая женщина смотреть онлайн
    Cкачать фильм Чужая женщина бесплатно
    Чужая женщина скачать торрент в хорошем качестве
    Чужая женщина смотреть онлайн бесплатно в хорошем качестве


    Вы не можете начинать темы
    Вы не можете отвечать на сообщения
    Вы не можете редактировать свои сообщения
    Вы не можете удалять свои сообщения
    Вы не можете голосовать в опросах
    Вы не можете прикреплять файлы к сообщениям
    Вы можете скачивать файлы