Ссылка на приватное зеркало нашего сайта всего за 1$. Внимание количество ограничено!!!

2 сезон

iTunes

1 сезон

1

2 сезон

2 сезон

iTunes

1 сезон

RePack

30

Ultimate

ВАЖНО

ИГРА 18+

pack

RePack

MK11
pack

Забери бонус

RePack

jed

!!Акция!!

Alien_Rage

RePack

fifa19

RePack

Assassins Creed: Odyssey

RePack

NEED FOR SPEED™ PAYBACK

4 сезон

9 сезон

Бесстыжие 9 сезон

Все сериалы

все сериалы на PB.wtf

RePack

FAR CRY 5
  

Аванпост / Застава / The Outpost / Сезон: 1 / Серии: 1-10 из 10 (Джон Лойд, Кайнен Гриффин, Курт Найт) [2018, Фэнтези, WEB-DL 1080p] MVO [NewStudio] pb.wtf

Аванпост через торрент pb.wtf

Размер: 17.89 GB | Добавлен: 2 года 1 мес. назад | Торрент скачан:26 раз
Скачать  

06-10-2018 02:14 Аванпост Скачать торрент  

Аванпост / Застава / The Outpost
Год выпуска: 2018
Страна: США
Жанр: Фэнтези
Продолжительность: ~ 00:45:00
Перевод: Профессиональный многоголосый |
Субтитры: Русские

Режиссер: Джон Лойд, Кайнен Гриффин, Курт Найт

rating

В ролях:

Джессика Грин, Эндрю Ховард, Робин Малкольм, Чаран Прабхакар, Филип Броди, Кевин МакНэлли, Кокей Фалкоу, Эми Де Брюн, Шон Брэдли Хофер, Джейк Стормоен

Описание:

В центре сюжета оказывается юная и прекрасная представительница расы Чернокровок Тэлен. Она ищет убийц своей семьи, следы которых ведут в крепость, находящуюся на границе обитаемых земель. Во время длительной путешествия девушка обнаруживает у себя сверхъестественные способности, которыми ей придется овладеть, чтобы спасти себя и защитить мир от фанатичного религиозного диктатора.

Качество: WEB-DL 1080p
Формат: MKV

Видео: MPEG-4 AVC, ~ 5,2 Мбит/с, 1908х1968
Аудио#1: Русский (AC3, 6 ch, 384 Кбит/с)
Аудио#2: английский (AC3, 6 ch, 384 Кбит/с)
скриншот   скриншот   скриншот   скриншот   скриншот  

Общее
Уникальный идентификатор : 246487705236740640907342124629436211571 (0xB96FCE2476654030A89A0843D1C12173)
Полное имя : D:\The Outpost (Season 01) NewStudio 1080\The.Outpost.s01e01.WEBDL.1080p.NewStudio.TV.mkv
Формат : Matroska
Версия формата : Version 4 / Version 2
Размер файла : 1,78 Гбайт
Продолжительность : 42 м. 27 с.
Общий поток : 5996 Кбит/сек
Дата кодирования : UTC 2018-07-11 19:16:51
Программа кодирования : mkvmerge v6.7.0 ('Back to the Ground') 32bit built on Jan 8 2014 15:03:17
Библиотека кодирования : libebml v1.3.0 + libmatroska v1.4.1

Видео
Идентификатор : 1
Формат : AVC
Формат/Информация : Advanced Video Codec
Профиль формата : High@L4
Параметр CABAC формата : Да
Параметр RefFrames формата : 4 кадра
Идентификатор кодека : V_MPEG4/ISO/AVC
Продолжительность : 42 м. 27 с.
Битрейт : 5109 Кбит/сек
Ширина : 1908 пикселей
Высота : 1068 пикселей
Соотношение сторон : 16:9
Режим частоты кадров : Постоянный
Частота кадров : 23,976 (24000/1001) кадра/сек
Цветовое пространство : YUV
Субдискретизация насыщенности : 4:2:0
Битовая глубина : 8 бит
Тип развёртки : Прогрессивная
Бит/(Пиксели*Кадры) : 0.105
Размер потока : 1,52 Гбайт (85%)
Язык : English
Default : Да
Forced : Нет
Цветовой диапазон : Limited
Основные цвета : BT.709
Характеристики трансфера : BT.709
Коэффициенты матрицы : BT.709

Аудио #1
Идентификатор : 2
Формат : AC-3
Формат/Информация : Audio Coding 3
Расширение режима : CM (complete main)
Параметр Endianness формата : Big
Идентификатор кодека : A_AC3
Продолжительность : 42 м. 27 с.
Вид битрейта : Постоянный
Битрейт : 384 Кбит/сек
Каналы : 6 каналов
Расположение каналов : Front: L C R, Side: L R, LFE
Частота : 48,0 КГц
Частота кадров : 31,250 кадров/сек (1536 spf)
Метод сжатия : С потерями
Размер потока : 117 Мбайт (6%)
Язык : Russian
Default : Да
Forced : Да

Аудио #2
Идентификатор : 3
Формат : AC-3
Формат/Информация : Audio Coding 3
Расширение режима : CM (complete main)
Параметр Endianness формата : Big
Идентификатор кодека : A_AC3
Продолжительность : 42 м. 27 с.
Вид битрейта : Постоянный
Битрейт : 384 Кбит/сек
Каналы : 6 каналов
Расположение каналов : Front: L C R, Side: L R, LFE
Частота : 48,0 КГц
Частота кадров : 31,250 кадров/сек (1536 spf)
Метод сжатия : С потерями
Размер потока : 117 Мбайт (6%)
Язык : English
Default : Нет
Forced : Нет

Текст
Идентификатор : 4
Формат : ASS
Идентификатор кодека : S_TEXT/ASS
Идентификатор кодека/Информация : Advanced Sub Station Alpha
Метод сжатия : Без потерь
Язык : Russian
Default : Да
Forced : Да

pb.wtf



Скачать Аванпост через торрент http://pic1.kartinco.top/images/11/b8awy.jpg Скачать фильм Аванпост через торрент бесплантно в хорошем качестве Описание: В центре сюжета оказывается юная и прекрасная представительница расы Чернокровок Тэлен. Она ищет убийц своей семьи, следы которых ... 10 10 3
Торрент: Зарегистрирован [2018-10-06 02:14] · скачан: 26 раз
Статус: √ проверено
Размер: 17.89 GB
Как cкачать? Как скачать Аванпост через торрент | qTorrent

% Раздел Тема Автор DL S | L
Зарубежные сериалы [ 17.54 GB ] Аванпост / Застава / The Outpost / Сезон: 3 / Серии: 1-6 из 13 [2020 WEB-DL 1080p] MVO [Jaskier] bober100 Скачать
1 | 1
Зарубежные сериалы [ 5.37 GB ] Аванпост / Застава / The Outpost / Сезон: 1 / Серии: 1-10 из 10 [2018 WEB-DLRip] MVO [NewStudio] bober100 Скачать
1 | 0
Зарубежные сериалы [ 9.81 GB ] Аванпост / Застава / The Outpost / Сезон: 1 / Серии: 1-10 из 10 [2018 WEB-DL 720p] MVO [Jaskier] bober100 Скачать
4 | 0
Зарубежные сериалы [ 4.92 GB ] Аванпост / Застава / The Outpost / Сезон: 1 / Серии: 1-10 из 10 [2018 WEB-DLRip] MVO [Jaskier] bober100 Скачать
1 | 0

28-11-2019 20:33  

Отключить всю рекламу на сайте

    Дорогой пользователь! Огромная просьба, поблагодарите релизера, оцените раздачу и оставьте свои комментарий, если Вы скачали Аванпост через торрент бесплатно! Внесите свою лепту в развитие PiratBit!
    Комментировать посты могут только пользователи прошедшие не сложную регистрацию
    Показать сообщения:    

    Аванпост через торрент
    Скачать бесплатно Аванпост
    Аванпост скачать торрент
    Аванпост смотреть онлайн
    Cкачать фильм Аванпост бесплатно
    Аванпост скачать торрент в хорошем качестве
    Аванпост смотреть онлайн бесплатно в хорошем качестве


    Вы не можете начинать темы
    Вы не можете отвечать на сообщения
    Вы не можете редактировать свои сообщения
    Вы не можете удалять свои сообщения
    Вы не можете голосовать в опросах
    Вы не можете прикреплять файлы к сообщениям
    Вы можете скачивать файлы