Ссылка на приватное зеркало нашего сайта всего за 1$. Внимание количество ограничено!!!

2 сезон

iTunes

1 сезон

1

iTunes

iTunes

iTunes

1 сезон

RePack

30

ИГРА 18+

pack

ВАЖНО

!!Акция!!

Alien_RageХит недели

RePack

MK11
pack

Забери бонус

RePack

jed

!!Акция!!

Alien_Rage

RePack

fifa19

RePack

Assassins Creed: Odyssey

RePack

NEED FOR SPEED™ PAYBACK

4 сезон

9 сезон

Бесстыжие 9 сезон

Все сериалы

все сериалы на PB.wtf

RePack

FAR CRY 5
  

Московские тайны. Гостья из прошлого / Серии: 1-2 из 2 (Александр Баршак) [2018, Детектив, криминал, WEB-DLRip] pb.wtf

Московские тайны. Гостья из прошлого через торрент pb.wtf

Размер: 1.13 GB | Добавлен: 2 года назад | Торрент скачан:123 раза
Скачать  

06-10-2018 05:25 Московские тайны. Гостья из прошлого Скачать торрент  

Московские тайны. Гостья из прошлого
Год выпуска: 2018
Страна: Россия
Жанр: Детектив, криминал
Продолжительность: ~ 00:47:00
Субтитры: отсутствуют

Режиссер: Александр Баршак



В ролях:

Алексей Макаров, Анна Старшенбаум, Евгений Пронин, Константин Соловьёв

Описание:

Молодая москвичка Настя Вяземская после трагической гибели жениха переквалифицировалась из историка в сотрудницу Следственного комитета. Как ни странно, её первое образование очень помогает ей на новой работе. Так, например, ей предстоит расследовать убийство, произошедшее в Голосовом овраге, что в Коломенском парке. Об этом месте ходят страшные легенды. И кому как не историку разбираться в старых тайнах…

Качество: WEB-DLRip
Формат: AVI

Видео: 720x400 (1.80:1), 25 fps, XviD build 73 ~1500 kbps avg, 0.208 bit/pixel
Аудио: 48.0 kHz, AC3 Dolby Digital, 2/0 (L,R) ch, ~ 192 kbps
скриншот  скриншот  скриншот  скриншот  

General
Complete name : D:\Moskovskie.tayni.Gostya.iz.proshlogo.2018.WEB-DL.Rip.Files-x\01.Moskovskie.tayni.Gostya.iz.proshlogo.2018.WEB-DL.Rip.Files-x.avi
Format : AVI
Format/Info : Audio Video Interleave
File size : 578 MiB
Duration : 47 min 29 s
Overall bit rate : 1 701 kb/s
Writing application : VirtualDubMod 1.5.10.3 | www.virtualdub-fr.org || (build 2550/release)
Writing library : VirtualDubMod build 2550/release

Video
ID : 0
Format : MPEG-4 Visual
Format profile : Advanced Simple@L5
Format settings : BVOP1 / Custom Matrix
Format settings, BVOP : 1
Format settings, QPel : No
Format settings, GMC : No warppoints
Format settings, Matrix : Custom
Codec ID : XVID
Codec ID/Hint : XviD
Duration : 47 min 29 s
Bit rate : 1 500 kb/s
Width : 720 pixels
Height : 400 pixels
Display aspect ratio : 16:9
Frame rate : 25.000 FPS
Color space : YUV
Chroma subsampling : 4:2:0
Bit depth : 8 bits
Scan type : Progressive
Compression mode : Lossy
Bits/(Pixel*Frame) : 0.208
Stream size : 509 MiB (88%)
Writing library : XviD 73

Audio
ID : 1
Format : AC-3
Format/Info : Audio Coding 3
Codec ID : 2000
Duration : 47 min 29 s
Bit rate mode : Constant
Bit rate : 192 kb/s
Channel(s) : 2 channels
Channel positions : Front: L R
Sampling rate : 48.0 kHz
Frame rate : 31.250 FPS (1536 SPF)
Bit depth : 16 bits
Compression mode : Lossy
Stream size : 65.2 MiB (11%)
Alignment : Split accross interleaves
Interleave, duration : 40 ms (1.00 video frame)
Interleave, preload duratio : 500 ms
Service kind : Complete Main

pb.wtf



Скачать Московские тайны. Гостья из прошлого через торрент http://img11.lostpic.net/2018/10/05/6b5fee3534ca7090bde20740c981b88e.jpg Скачать фильм Московские тайны. Гостья из прошлого через торрент бесплантно в хорошем качестве Описание: Молодая москвичка Настя Вяземская после трагической гибели жениха переквалифицировалась из историка в сотрудницу Следственного ... 10 10 9
Торрент: Зарегистрирован [2018-10-06 05:25] · скачан: 123 раз
Статус: √ проверено
Размер: 1.13 GB
Как cкачать? Как скачать Московские тайны. Гостья из прошлого через торрент | qTorrent

% Раздел Тема Автор DL S | L
Наши сериалы [ 3.44 GB ] Московские тайны. Гостья из прошлого / Серии: 1-2 из 2 [2018 ьный фильм WEB-DL 1080p] bober100 Скачать
1 | 0
Наши сериалы [ 2.18 GB ] Московские тайны. Гостья из прошлого / Серии: 1-2 из 2 [2018 ьный фильм WEB-DL 720p] bober100 Скачать
1 | 0
Наши сериалы [ 1.19 GB ] Московские тайны. Гостья из прошлого / Серии: 1-2 из 2 [2018 ьный фильм WEB-DLRip-AVC] bober100 Скачать
1 | 0
Наши сериалы [ 1.25 GB ] Московские тайны. Гостья из прошлого / Серии: 1-2 из 2 [2018 SATRip-AVC] aleksan55 Скачать
1 | 0
Наши сериалы [ 1.23 GB ] Московские тайны. Гостья из прошлого / Серии: 1-2 из 2 [2018 ьный фильм SATRip] bober100 Скачать
1 | 0

28-11-2019 20:33  

Отключить всю рекламу на сайте

    Дорогой пользователь! Огромная просьба, поблагодарите релизера, оцените раздачу и оставьте свои комментарий, если Вы скачали Московские тайны. Гостья из прошлого через торрент бесплатно! Внесите свою лепту в развитие PiratBit!
    Комментировать посты могут только пользователи прошедшие не сложную регистрацию
    Показать сообщения:    

    Московские тайны. Гостья из прошлого через торрент
    Скачать бесплатно Московские тайны. Гостья из прошлого
    Московские тайны. Гостья из прошлого скачать торрент
    Московские тайны. Гостья из прошлого смотреть онлайн
    Cкачать фильм Московские тайны. Гостья из прошлого бесплатно
    Московские тайны. Гостья из прошлого скачать торрент в хорошем качестве
    Московские тайны. Гостья из прошлого смотреть онлайн бесплатно в хорошем качестве


    Вы не можете начинать темы
    Вы не можете отвечать на сообщения
    Вы не можете редактировать свои сообщения
    Вы не можете удалять свои сообщения
    Вы не можете голосовать в опросах
    Вы не можете прикреплять файлы к сообщениям
    Вы можете скачивать файлы