новый адрес пиратбит piratbit
Мега распродажа FORZA HORIZON 4 ULTIMATE+ВСЕ DLC+ОНЛАЙН всего за 499р. 349 руб. (супер цена). Внимание количество ограничено!!!

iTunes

1+1

iTunes

мы

iTunes

1

iTunes

Чернобыль

iTunes

Ральф против интернета

Лицензия

ПШазам

Лицензия

Игра престолов

Лицензия

30
pack

ВАЖНО

!!Акция!!

Alien_RageХит недели

RePack

Resident Evil 21

ИГРА 18+

pack

RePack

Metro:Exodus

!!Акция!!

Alien_Rage

RePack

fifa19

RePack

Assassins Creed: Odyssey

RePack

NEED FOR SPEED™ PAYBACK

3 сезон

9 сезон

Бесстыжие 9 сезон

Все сериалы

все сериалы на PB.wtf

RePack

FAR CRY 5
Ребята, катастрофически не хватает 1900р. для оплаты серверов за Октябрь (всвязи с блокировками трафик упал в 3 раза), 1-2р., выручайте.
  

Казаки (Василий Пронин) [1961, СССР, драма, DVDRip от AVP Studio] pb.wtf

Казаки через торрент pb.wtf

Размер: 1.09 GB | Добавлен: 1 год 1 мес. назад | Торрент скачан:9 раз
Скачать  

06-10-2018 09:06 Казаки Скачать торрент  

Казаки
Страна: СССР
Производство: Мосфильм

Жанр: драма
Год выпуска: 1961
Продолжительность: 01:30:36

Перевод: Не требуется
Cубтитры: нет
Оригинальная аудиодорожка: русский

Режиссер: Василий Пронин

В ролях:
Леонид Губанов, Борис Андреев, Зинаида Кириенко, Эдуард Бредун, Борис Новиков, Герман Качин, Изабелла Мень, Вера Енютина, Константин Градополов...
Об актёрах подробней

Описание:
По мотивам повести Л. Н. Толстого.
Юнкер Оленин, представитель петербургской золотой молодёжи, в поисках романтики едет из Петербурга на Кавказ. Его полк расквартирован в казачьей станице. Здесь он влюбляется в красавицу Марьяну (Зинаида Кириенко) и даже решает жениться на ней, но она любит казака Лукашку и ни за что не променяет его на барина...

Источник: DVD5 R5
Качество видео: DVDRip
Формат видео: AVI

Видео: 688х512 (4:3), 25 fps, XviD ~ 1520 kbps avg, 0.173 bit/pixel
Аудио: 48 kHz, Dolby Digital AC3 2.0, 192 kbps

Раздача от:
Общее
Полное имя : Kazaki.1961.DVDRip_[New-team]_by_AVP_Studio.avi
Формат : AVI
Формат/Информация : Audio Video Interleave
Размер файла : 1,09 Гбайт
Продолжительность : 1 ч. 30 м.
Общий поток : 1722 Кбит/сек
Программа кодирования : VirtualDubMod 1.5.10.3 | www.virtualdub-fr.org || (build 2550/release)
Библиотека кодирования : VirtualDubMod build 2550/release

Видео
Идентификатор : 0
Формат : MPEG-4 Visual
Профиль формата : Advanced Simple@L5
Настройки формата : BVOP1 / Custom Matrix
Параметр BVOP формата : 1
Параметр QPel формата : Нет
Параметр GMC формата : Без точки перехода
Параметр матрицы формата : Выборочная
Идентификатор кодека : XVID
Идентификатор кодека/Подсказка : XviD
Продолжительность : 1 ч. 30 м.
Битрейт : 1520 Кбит/сек
Ширина : 688 пикселей
Высота : 512 пикселей
Соотношение сторон : 4:3
Частота кадров : 25,000 кадров/сек
Цветовое пространство : YUV
Субдискретизация насыщенности : 4:2:0
Битовая глубина : 8 бит
Тип развёртки : Прогрессивная
Метод сжатия : С потерями
Бит/(Пиксели*Кадры) : 0.173
Размер потока : 985 Мбайт (88%)
Библиотека кодирования : XviD 73

Аудио
Идентификатор : 1
Формат : AC-3
Формат/Информация : Audio Coding 3
Коммерческое название : Dolby Digital
Идентификатор кодека : 2000
Продолжительность : 1 ч. 30 м.
Вид битрейта : Постоянный
Битрейт : 192 Кбит/сек
Каналы : 2 канала
Channel layout : L R
Частота : 48,0 КГц
Частота кадров : 31,250 кадров/сек (1536 SPF)
Битовая глубина : 16 бит
Метод сжатия : С потерями
Размер потока : 124 Мбайт (11%)
Выравнивание : Разделение по промежуткам
Продолжительность промежутка : 40 мс. (1,00 видеокадр)
Время предзагрузки промежутка : 500 мс
pb.wtf



Скачать Казаки через торрент http://picplus.ru/img/1810/06/e20312cf.png Скачать фильм Казаки через торрент бесплантно в хорошем качестве Описание:По мотивам повести Л. Н. Толстого.Юнкер Оленин, представитель петербургской золотой молодёжи, в поисках романтики едет из ... 5 10 1
Info! Золотая раздача, скачанное не засчитывается.
Торрент: Зарегистрирован [2018-10-06 09:06] · скачан: 9 раз
Статус: √ проверено
Размер: 1.09 GB
Как cкачать? Как скачать Казаки через торрент | qTorrent

% Раздел Тема Автор DL S | L
Кино СССР [ 372 MB ] Когда казаки плачут [1963 СССР короткометражка SATRip-AVC от AVP Studio] AVP Studio Скачать
1 | 0
Кино СССР [ 371 MB ] Когда казаки плачут [1963 СССР короткометражка SATRip от AVP Studio] AVP Studio Скачать
1 | 0
Наши сериалы [ 2.17 GB ] Алмазы Сталина [2016 экранизация история SATRip Оригинальный] killermax2013 Скачать
1 | 0
Кино СССР [ 1.09 GB ] Казаки [1961 СССР DVDRip-AVC от AVP Studio] AVP Studio Скачать
1 | 0
Наши сериалы [ 36.83 GB ] Лесник. Своя земля / Сезон: 4 / Серии: 1-60 из 60 [2017 WEB-DLRip] bober100 Скачать
1 | 0


>> Регистрируемся здесь <<






Отзывы и комментарии о схеме читаем и пишем здесь: ---> Отзывы и комментарии о схеме

Новые благодарочки в телеграм довольных пользователей:
скриншот   скриншот   скриншот   скриншот   скриншот
    Дорогой пользователь! Огромная просьба, поблагодарите релизера, оцените раздачу и оставьте свои комментарий, если Вы скачали Казаки через торрент бесплатно! Внесите свою лепту в развитие PiratBit!
    Комментировать посты могут только пользователи прошедшие не сложную регистрацию
    Показать сообщения:    

    Казаки через торрент
    Скачать бесплатно Казаки
    Казаки скачать торрент
    Казаки смотреть онлайн
    Cкачать фильм Казаки бесплатно
    Казаки скачать торрент в хорошем качестве
    Казаки смотреть онлайн бесплатно в хорошем качестве


    Вы не можете начинать темы
    Вы не можете отвечать на сообщения
    Вы не можете редактировать свои сообщения
    Вы не можете удалять свои сообщения
    Вы не можете голосовать в опросах
    Вы не можете прикреплять файлы к сообщениям
    Вы можете скачивать файлы